Welcome Guest ( Log In | Register )

> Releases Upload / Добавление релизов

Добавить релиз тут / Click here to add release
Рекомендованные обменники / Recommended file shares

 
Reply to this topicStart new topic
> Psicosfera - Beta (2018), Avant-Garde Black Metal
post Oct 10 2018, 19:20:40
Post #1

Литр
*
Group: Подсевший
Posts: 85
Releases: 41
On Forums: 7 years 7 months
Thanks: 2153 time(s)
Unknown


(IMG:http://metalarea.org/images/audiocovers/2018_Oct/acov_tid311591_thumb.jpg)

*Artist: Psicosfera
*Album: Beta
*Year: 2018
*Genre: Avant-Garde Black Metal
*Country: Argentina (IMG:http://metalarea.org/forum/style_images/flags/Argentina.png)
*Format: mp3@CBR320kbps
*Size: 104MB

Tracklist:
1. X 07:26
2. XI 07:43
3. XII 05:30
4. XIII 04:55
5. XIV 06:27
6. XV 07:30
7. XVI 05:51
******************************
Total playing time: 45:22



Extended info
Independent production by Psicósfera.
All music written and arranged by Psicósfera.
Guitars recorded in our home studio.
Drums and Bass recorded in Estudio Calipso by Mariano Tizziani.
Mixing and mastering by Facundo Brinville.

Original painting by Santiago Caruso.
Graphic design by Gabriel Sabatini.


Technical info
(IMG:http://metalarea.org/images/spectrogram/2018_Oct/a38553f0caced9f0c5f4eff892149287.png)
Input File: Psicosfera - XIII.mp3
Channels : 2
Sample Rate : 44100
Precision : 16-bit
Duration : 00:04:55.80 = 13044780 samples = 22185 CDDA sectors
File Size : 11.9M
Bit Rate : 323k
Sample Encoding: MPEG audio (layer I, II or III)
Comments :
Title=XIII
Artist=Psicosfera
Album=Beta
Tracknumber=4
Year=2018



Register


Go to the top of the page
  Insert nick Quick quote
+Quote Post

Reply to this topicStart new topic
1 User(s) are reading this topic (1 Guests and 0 Anonymous Users)
0 Members:

 



- Lo-Fi Version Support form
Copyrights and abuse reports form
Time is now: 15th October 2018 - 11:39:14