Welcome Guest ( Log In | Register )

> Releases Upload / Добавление релизов

Добавить релиз тут / Click here to add release
Рекомендованные обменники / Recommended file shares

> Megalithic Headhunter - Nirleka (2018), Brutal Death Metal
post Oct 10 2018, 19:44:38
Post #1
BAN
Banned till
Oct 20 2018, 09:33:06



(IMG:http://metalarea.org/images/audiocovers/2018_Oct/acov_tid311592_thumb.jpg)

*Artist: Megalithic Headhunter
*Album: Nirleka
*Year: 2018
*Genre: Brutal Death Metal
*Country: Indonesia (IMG:http://metalarea.org/forum/style_images/flags/Indonesia.png)
*Format: mp3@CBR320kbps
*Size: 61MB

Tracklist:
1. Arkaekum "Headwimps Slaughterrible"
2. Megalith Savagery
3. Meganthropus Paleojavanicus
4. Kjokkenmoddinger
5. Megalithic Headhunter
6. Menhir
7. Animist Concregation
8. Deathhaunt
9. Outro
******************************
Total playing time: 26:29



Extended info
Iskandar Zulkarnain : Vocal,Drum Programming


Technical info
(IMG:http://metalarea.org/images/spectrogram/2018_Oct/b385c6a2b2106ce144f3afce0efce99c.png)
Input File: 04 Kjokkenmoddinger.mp3
Channels : 2
Sample Rate : 44100
Precision : 16-bit
Duration : 00:03:57.57 = 10476969 samples = 17818 CDDA sectors
File Size : 9.50M
Bit Rate : 320k
Sample Encoding: MPEG audio (layer I, II or III)
Comments :
Title=Kjokkenmoddinger
Artist=Megalithic Headhunter
Album=Nirleka
Tracknumber=4
Year=2018
Genre=Brutal Death Metal
Discnumber=1



Register


Go to the top of the page
  Insert nick Quick quote
+Quote Post
 
Start new topic
Replies (1 - 1)
post Oct 11 2018, 04:30:21
Post #2
BAN
Banned till
Oct 20 2018, 09:33:06



Cloud Mail 320
Register
Go to the top of the page
  Insert nick Quick quote
+Quote Post

Reply to this topicStart new topic
1 User(s) are reading this topic (1 Guests and 0 Anonymous Users)
0 Members:

 



- Lo-Fi Version Support form
Copyrights and abuse reports form
Time is now: 16th October 2018 - 20:47:48