Welcome Guest ( Log In | Register )

> Releases Upload / Добавление релизов

Добавить релиз тут / Click here to add release
Рекомендованные обменники / Recommended file shares

 
Reply to this topicStart new topic
> Tosco - Revanche (2018), Thrash Metal/Hardcore
post Oct 10 2018, 20:18:38
Post #1
BAN
Banned till
Oct 20 2018, 09:33:06



(IMG:http://metalarea.org/images/audiocovers/2018_Oct/acov_tid311593_thumb.jpg)

*Artist: Tosco
*Album: Revanche
*Year: 2018
*Genre: Thrash Metal/Hardcore
*Country: Brazil (IMG:http://metalarea.org/forum/style_images/flags/Brazil.png)
*Format: mp3@CBR320kbps
*Size: 71MB

Tracklist:
01. Soberba
02. Temos o Que Temer
03. Cala a Boca Globo
04. Amigo Seu
05. DNA
06. Mercadores da Morte
07. Sinceridade Agressiva
08. O Trump Quer Que Se Foda
09. Saúde Falida
10. Cenário de Chacina
******************************
Total playing time: 34:08



Extended info
Osvaldo Fernandez - Vocal
Ricardo Lima - Guitarra
Anderson Casarini - Baixo
Paulo Mariz - Bateria



Technical info
(IMG:http://metalarea.org/images/spectrogram/2018_Oct/5bbf2035bbecb96ab689551b5bd82b3c.png)
Input File: 04. Amigo Seu.mp3
Channels : 2
Sample Rate : 44100
Precision : 16-bit
Duration : 00:03:52.11 = 10236227 samples = 17408.5 CDDA sectors
File Size : 9.38M
Bit Rate : 323k
Sample Encoding: MPEG audio (layer I, II or III)
Comments :
Title=Amigo Seu
Artist=Tosco
Album=Revanche
Tracknumber=4
Year=2018
Discnumber=1



Register


Thanks:
(1) Rosen,
Go to the top of the page
  Insert nick Quick quote
+Quote Post

Reply to this topicStart new topic
1 User(s) are reading this topic (1 Guests and 0 Anonymous Users)
0 Members:

 



- Lo-Fi Version Support form
Copyrights and abuse reports form
Time is now: 16th October 2018 - 19:52:28