Welcome Guest ( Log In | Register )

> Releases Upload / Добавление релизов

Добавить релиз тут / Click here to add release
Рекомендованные обменники / Recommended file shares

> Nazrak - Cantiques Funèbres (2018), Melodic Black Metal
post Oct 10 2018, 21:53:48
Post #1

Правь статус, ####!111
**************
Group: Металариец
Posts: 3,327
Releases: 662
From: Brazil
On Forums: 6 years 8 months
Thanks: 26117 time(s)
Brazil


(IMG:https://metalarea.org/images/audiocovers/2018_Oct/acov_tid311594_thumb.jpg)

*Artist: Nazrak
*Album: Cantiques Funèbres
*Year: 2018
*Genre: Melodic Black Metal
*Country: France (IMG:https://metalarea.org/forum/style_images/flags/France.png)
*Format: mp3@CBR320kbps
*Size: 79MB

Tracklist:
1. Intro 00:39
2. Le fantôme et le mortel 08:36
3. Sous l'œil du sage 03:56
4. St Jean de la Porte 09:49
5. Sapaudia 06:00
6. La nuit et l'enfant 05:01
******************************
Total playing time: 34:01



Technical info
(IMG:https://metalarea.org/images/spectrogram/2018_Oct/b44eac2d23f046589f3525d064046e5c.png)
Input File: 01 Intro.mp3
Channels : 2
Sample Rate : 44100
Precision : 16-bit
Duration : 00:00:39.06 = 1722326 samples = 2929.13 CDDA sectors
File Size : 1.56M
Bit Rate : 320k
Sample Encoding: MPEG audio (layer I, II or III)
Comments :
Title=Intro
Artist=Nazrak
Album=Cantiques Funèbres
Tracknumber=1
Year=2018



Register


Go to the top of the page
  Insert nick Quick quote
+Quote Post
 
Start new topic
Replies (1 - 1)
post Oct 11 2018, 17:13:15
Post #2

MDM-Thrash Metal
**************
Group: Металариец
Posts: 7,147
Releases: 421
From: Одесса
On Forums: 11 years 2 months
Thanks: 13629 time(s)
Ukraine


Register


Go to the top of the page
  Insert nick Quick quote
+Quote Post

Reply to this topicStart new topic
1 User(s) are reading this topic (1 Guests and 0 Anonymous Users)
0 Members:

 



- Lo-Fi Version Support form
Copyrights and abuse reports form
Time is now: 16th October 2018 - 19:13:23