Welcome Guest ( Log In | Register )

> Releases Upload / Добавление релизов

Добавить релиз тут / Click here to add release
Рекомендованные обменники / Recommended file shares

 
Reply to this topicStart new topic
> Annular - Absolute Stillness [ep] (2018), Atmospheric Black Metal
post Oct 10 2018, 22:03:56
Post #1

Правь статус, ####!111
**************
Group: Металариец
Posts: 3,327
Releases: 662
From: Brazil
On Forums: 6 years 8 months
Thanks: 26117 time(s)
Brazil


(IMG:https://metalarea.org/images/audiocovers/2018_Oct/acov_tid311595_thumb.jpg)

*Artist: Annular
*Album: Absolute Stillness [ep]
*Year: 2018
*Genre: Atmospheric Black Metal
*Country: United States (IMG:https://metalarea.org/forum/style_images/flags/United%20States.png)
*Format: mp3@CBR320kbps
*Size: 48MB

Tracklist:
1. Inwards Malice 04:06
2. My Own Solitude 02:50
3. Enmity 02:53
4. Sette Bassi 04:20
5. Uneasiness 04:12
6. Eternal Hearse 02:09
******************************
Total playing time: 20:30



Technical info
(IMG:https://metalarea.org/images/spectrogram/2018_Oct/57fc1df530d376e3171b70ba43252848.png)
Input File: 03 Enmity.mp3
Channels : 2
Sample Rate : 44100
Precision : 16-bit
Duration : 00:02:53.07 = 7632387 samples = 12980.2 CDDA sectors
File Size : 6.92M
Bit Rate : 320k
Sample Encoding: MPEG audio (layer I, II or III)
Comments :
Title=Enmity
Artist=Annular
Album=Absolute Stillness
Tracknumber=3
Year=2018



Register


Go to the top of the page
  Insert nick Quick quote
+Quote Post

Reply to this topicStart new topic
1 User(s) are reading this topic (1 Guests and 0 Anonymous Users)
0 Members:

 



- Lo-Fi Version Support form
Copyrights and abuse reports form
Time is now: 16th October 2018 - 20:05:07