Welcome Guest ( Log In | Register )

> Kjeld - Banier Fan Frisia [ep] (2018), Atmospheric Black Metal (D6)
post Oct 10 2018, 23:30:12
Post #1

Аннигилятор пивА
Group Icon
Group: V.I.P
Posts: 50,741
Releases: 15814
From: Koenigsberg - TILZIT
On Forums: 12 years 6 months
Thanks: 344878 time(s)
Russian Federation


(IMG:https://metalarea.org/images/audiocovers/2018_Oct/acov_tid311597_thumb.jpg)

*Artist: Kjeld
*Album: Banier Fan Frisia [ep]
*Year: 2018
*Genre: Atmospheric Black Metal
*Country: Netherlands (IMG:https://metalarea.org/forum/style_images/flags/Netherlands.png)
*Format: mp3@CBR320kbps
*Size: 40MB

Tracklist:
1. Banier Fan Frisia
2. Wanskepsel
3. Keningsein
******************************
Total playing time: 17:08


Preview 2

Extended info
Frisian Black Metal
Kjeld’s music could best be described as deeply rooted in the Scandinavian Black Metal tradition.

Kâld - Guitars
Tsjuster - Guitars (Krocht, Skrik, Tsjuster, ex-Lugubre)
Swerc - Bass (Asregen, Dystertid, Gheestenland, Krocht, Lugubre, Salacious Gods, Tarnkappe, ex-Autumn in Frost, ex-Dethrimentum, Dwaallicht, ex-Winter of Sin, ex-Adendum Demise, ex-Maliën )
Fjildslach - Drums (Lugubre, Salacious Gods, ex-Intestterror)
Skier - Vocals


Technical info
(IMG:https://metalarea.org/images/spectrogram/2018_Oct/0760f9de7e5979daaefc177a4d320cc6.png)
Input File: 01. Banier Fan Frisia.mp3
Channels : 2
Sample Rate : 44100
Precision : 16-bit
Duration : 00:05:48.08 = 15350196 samples = 26105.8 CDDA sectors
File Size : 13.9M
Bit Rate : 320k
Sample Encoding: MPEG audio (layer I, II or III)
Comments :
Title=Banier Fan Frisia
Artist=Kjeld
Album=Banier Fan Frisia (EP)
Tracknumber=01
Year=2018
Genre=Black Metal



Register


Go to the top of the page
  Insert nick Quick quote
+Quote Post
 
Start new topic
Replies (1 - 4)
post Oct 11 2018, 08:45:29
Post #2

Аннигилятор пивА
Group Icon
Group: V.I.P
Posts: 50,741
Releases: 15814
From: Koenigsberg - TILZIT
On Forums: 12 years 6 months
Thanks: 344878 time(s)
Russian Federation


mirror
Register


Go to the top of the page
  Insert nick Quick quote
+Quote Post
post Oct 11 2018, 12:38:48
Post #3

Group: Подсевший
Posts: 24
Releases: 0
On Forums: 2 years 1 month
Thanks: 4 time(s)
Chile


thanks for mega!
Go to the top of the page
  Insert nick Quick quote
+Quote Post
post Oct 12 2018, 16:58:34
Post #4

Мегаманьяк
***********
Group: Металариец
Posts: 1,738
Releases: 0
From: Dnipro
On Forums: 10 years 4 months
Thanks: 459 time(s)
Ukraine


Очень хорошо, но очень мало (IMG:style_emoticons/default/6.gif)
Go to the top of the page
  Insert nick Quick quote
+Quote Post
post Oct 15 2018, 15:20:35
Post #5

Четыре Литра
****
Group: Металариец
Posts: 329
Releases: 0
On Forums: 1 year 1 month
Thanks: 125 time(s)
Unknown


Весьма не дурно
Go to the top of the page
  Insert nick Quick quote
+Quote Post

Reply to this topicStart new topic
1 User(s) are reading this topic (1 Guests and 0 Anonymous Users)
0 Members:

 



- Lo-Fi Version Support form
Copyrights and abuse reports form
Time is now: 11th December 2018 - 01:55:16