Welcome Guest ( Log In | Register )

> Releases Upload / Добавление релизов

Добавить релиз тут / Click here to add release
Рекомендованные обменники / Recommended file shares

> Absolution - Confessions Of The Iniquitous (2018), Old School Death Metal
post Oct 11 2018, 03:45:00
Post #1
BAN
Banned till
Oct 20 2018, 09:33:06



(IMG:http://metalarea.org/images/audiocovers/2018_Oct/acov_tid311600_thumb.jpg)

*Artist: Absolution
*Album: Confessions Of The Iniquitous
*Year: 2018
*Genre: Old School Death Metal
*Country: United Kingdom (IMG:http://metalarea.org/forum/style_images/flags/United%20Kingdom.png)
*Format: mp3@CBR320kbps
*Size: 89MB

Tracklist:
1. Hanging By A Thread 04:10
2. Gas Mark 8 05:01
3. Shallow Graves 03:12
4. Flames Of Fury 03:17
5. Beyond The Pale 04:24
6. Infantile Starvation 03:24
7. The Flesh And The Fiends 02:23
8. Love Sick Mind 04:22
9. The Ogress Of Reading 05:36
******************************
Total playing time: 35:49




Extended info
Vocals: Neil Hadden
Guitar: Rich Harwood
Guitar: Adam Jenkins
Bass: Ian Davis
Drums: Jason Woods


Technical info
(IMG:http://metalarea.org/images/spectrogram/2018_Oct/c690e984b82b78e78e8a46a53986cbbc.png)
Input File: 03 Shallow Graves.mp3
Channels : 2
Sample Rate : 44100
Precision : 16-bit
Duration : 00:03:12.25 = 8478137 samples = 14418.6 CDDA sectors
File Size : 8.49M
Bit Rate : 353k
Sample Encoding: MPEG audio (layer I, II or III)
Comments :
Title=Shallow Graves
Artist=Absolution
Album=Confessions Of The Iniquitous
Tracknumber=3/9
Year=2018
Genre=Death Metal
Discnumber=1/1



Register


Go to the top of the page
  Insert nick Quick quote
+Quote Post
 
Start new topic
Replies (1 - 5)
post Oct 11 2018, 11:03:09
Post #2
BAN
Banned till
Oct 20 2018, 09:33:06



Cloud Mail 320
Register


Thanks:
Go to the top of the page
  Insert nick Quick quote
+Quote Post
post Oct 11 2018, 11:44:04
Post #3

Правь статус, ####!111
**************
Group: Металариец
Posts: 3,125
Releases: 11
From: South Of Heaven
On Forums: 8 years 4 weeks
Thanks: 2679 time(s)
Russian Federation




Thanks:
Go to the top of the page
  Insert nick Quick quote
+Quote Post
post Oct 11 2018, 11:52:37
Post #4

Empty Words
***********
Group: Металариец
Posts: 1,913
Releases: 8
From: Москва
On Forums: 9 years 1 month
Thanks: 2219 time(s)
Russian Federation


Неплохая смесь Grave, раннего Master, а также похоже на альбом 'Demonic Fertilizer' группы Eternal Solstice.


Thanks:
(1) rpa,
Go to the top of the page
  Insert nick Quick quote
+Quote Post
post Oct 12 2018, 17:02:10
Post #5

Маньяк
**********
Group: Металариец
Posts: 1,430
Releases: 0
From: Dnipro
On Forums: 10 years 3 months
Thanks: 387 time(s)
Ukraine


Ух и зажигают (IMG:style_emoticons/default/20.gif)
Go to the top of the page
  Insert nick Quick quote
+Quote Post
post Today, 10:58:34
Post #6

кручу наждак
**************
Group: Металариец
Posts: 3,430
Releases: 90
From: Самара
On Forums: 8 years 5 months
Thanks: 2566 time(s)
Russian Federation


А неплохо. На концерте башкой потрясти - самое оно.
Go to the top of the page
  Insert nick Quick quote
+Quote Post

Reply to this topicStart new topic
2 User(s) are reading this topic (2 Guests and 0 Anonymous Users)
0 Members:

 



- Lo-Fi Version Support form
Copyrights and abuse reports form
Time is now: 15th October 2018 - 11:13:06