Welcome Guest ( Log In | Register )

> Releases Upload / Добавление релизов

Добавить релиз тут / Click here to add release
Рекомендованные обменники / Recommended file shares

> Ivan - Memory (2018), Melodic Doom/Death Metal
post Oct 11 2018, 04:10:36
Post #1

Правь статус, ####!111
**************
Group: Металариец
Posts: 15,301
Releases: 10448
From: Г.Харьков
On Forums: 6 years 7 months
Thanks: 173167 time(s)
Unknown


(IMG:http://metalarea.org/images/audiocovers/2018_Oct/acov_tid311602_thumb.jpg)

*Artist: Ivan
*Album: Memory
*Year: 2018
*Genre: Melodic Doom/Death Metal
*Country: Australia (IMG:http://metalarea.org/forum/style_images/flags/Australia.png)
*Format: mp3@CBR320kbps
*Size: 110MB

Tracklist:
1. Visions 22:14
2. Time Is Lost 25:52
******************************
Total playing time: 48:06




Extended info
Brod Wellington Vocals, Drums
See also: ex-Amelus, ex-Neathist
Joseph Pap Vocals, Guitars


Technical info
(IMG:http://metalarea.org/images/spectrogram/2018_Oct/1244ce6a5b201d0fc6329037754d07c7.png)
Input File: 02 Time Is Lost.mp3
Channels : 2
Sample Rate : 44100
Precision : 16-bit
Duration : 00:25:52.26 = 68454622 samples = 116419 CDDA sectors
File Size : 62.1M
Bit Rate : 320k
Sample Encoding: MPEG audio (layer I, II or III)
Comments :
Title=Time Is Lost
Artist=Ivan
Album=Memory
Tracknumber=2/2
Year=2018
Genre=Metal
Discnumber=1/1



Register


Go to the top of the page
  Insert nick Quick quote
+Quote Post
 
Start new topic
Replies (1 - 8)
post Oct 11 2018, 11:05:07
Post #2

Правь статус, ####!111
**************
Group: Металариец
Posts: 15,301
Releases: 10448
From: Г.Харьков
On Forums: 6 years 7 months
Thanks: 173167 time(s)
Unknown


Cloud Mail 320
Register


Go to the top of the page
  Insert nick Quick quote
+Quote Post
post Oct 11 2018, 11:17:59
Post #3

Маньяк
**********
Group: Металариец
Posts: 1,199
Releases: 0
From: Луцьк
On Forums: 10 years 7 months
Thanks: 600 time(s)
Ukraine


Отличное название группы! (IMG:style_emoticons/default/m0114.gif) Ждем теперь новый фюнерал-дрон-думовый проект Mykola (IMG:style_emoticons/default/5.gif)


Thanks:
Go to the top of the page
  Insert nick Quick quote
+Quote Post
post Oct 11 2018, 11:42:21
Post #4

Leegte
***********
Group: Металариец
Posts: 1,514
Releases: 14
From: Kiovia
On Forums: 6 years 7 months
Thanks: 2131 time(s)
Ukraine


QUOTE(vo140182fav @ Oct 11 2018, 13:17:59) *
Отличное название группы! (IMG:style_emoticons/default/m0114.gif) Ждем теперь новый фюнерал-дрон-думовый проект Mykola (IMG:style_emoticons/default/5.gif)


Надя есть, Борис есть, Игоррр есть, теперь вот Иван появился. Васи не хватает, что будет играть Вася: дрон или дум?

По превью звучит как если бы MDB заиграли фьюнерал-дум, интересно.


Thanks:
(2) Baudolino, WND,
Go to the top of the page
  Insert nick Quick quote
+Quote Post
post Oct 11 2018, 12:04:18
Post #5

этнолиберал
***********
Group: Металариец
Posts: 1,511
Releases: 0
From: Харкiв
On Forums: 7 years 10 months
Thanks: 1705 time(s)
Ukraine


Все Васьки г0вно-рок шпилят. А дрон должен рубить Антон! Хотелось бы еще тру-блэк Орест.
Go to the top of the page
  Insert nick Quick quote
+Quote Post
post Oct 11 2018, 13:27:44
Post #6

:.::
Group Icon
Group: Curation team
Posts: 3,223
Releases: 26
From: SPB
On Forums: 12 years 4 months
Thanks: 1455 time(s)
Russian Federation


ЦИТАТА(Kwaad @ Oct 11 2018, 15:42:21) *
Васи не хватает, что будет играть Вася: дрон или дум?

думаю, что металкор =)


Thanks:
Go to the top of the page
  Insert nick Quick quote
+Quote Post
post Oct 11 2018, 13:55:13
Post #7

Чёткий пацан из Автово...
Group Icon
Group: V.I.P
Posts: 8,859
Releases: 34
From: Город над вольной Невой...
On Forums: 12 years 5 months
Thanks: 4215 time(s)
Russian Federation


ЦИТАТА(WND @ 11th October 2018 - 15:27:44) *
думаю, что металкор =)

(IMG:style_emoticons/default/15.gif) (IMG:style_emoticons/default/15.gif) (IMG:style_emoticons/default/15.gif) с дэткор-фьюжн-джент инфлюенциями)))
Go to the top of the page
  Insert nick Quick quote
+Quote Post
post Oct 12 2018, 16:55:59
Post #8

Мегаманьяк
***********
Group: Металариец
Posts: 1,738
Releases: 0
From: Dnipro
On Forums: 10 years 4 months
Thanks: 459 time(s)
Ukraine


Русишь Ифан? (IMG:style_emoticons/default/13.gif)
Go to the top of the page
  Insert nick Quick quote
+Quote Post
post Oct 13 2018, 07:47:04
Post #9

Котеги! Нравяцо котеги?
**************
Group: Металариец
Posts: 5,024
Releases: 0
From: Терра Инкогнита
On Forums: 8 years 6 months
Thanks: 1788 time(s)
Russian Federation


ЦИТАТА(RUDACHUR @ 12th October 2018 - 19:08:54) *
греки постарались :
Brod Wellington ... Joseph Pap

типично греческие имена
Go to the top of the page
  Insert nick Quick quote
+Quote Post

Reply to this topicStart new topic
1 User(s) are reading this topic (1 Guests and 0 Anonymous Users)
0 Members:

 



- Lo-Fi Version Support form
Copyrights and abuse reports form
Time is now: 11th December 2018 - 01:41:03