Welcome Guest ( Log In | Register )

> Releases Upload / Добавление релизов

Добавить релиз тут / Click here to add release
Рекомендованные обменники / Recommended file shares

 
Reply to this topicStart new topic
> Bestiality - Stuck In Bestial Vision [ep] (2014), Blackened Thrash Metal
post Oct 11 2018, 05:53:58
Post #1

Правь статус, ####!111
**************
Group: Металариец
Posts: 15,301
Releases: 10448
From: Г.Харьков
On Forums: 6 years 7 months
Thanks: 173167 time(s)
Unknown


(IMG:http://metalarea.org/images/audiocovers/2018_Oct/acov_tid311603_thumb.jpg)

*Artist: Bestiality
*Album: Stuck In Bestial Vision [ep]
*Year: 2014
*Genre: Blackened Thrash Metal
*Country: Poland (IMG:http://metalarea.org/forum/style_images/flags/Poland.png)
*Format: mp3@CBR320kbps
*Size: 64MB

Tracklist:
1. Ode to the Dead / Tales from the Crypt 03:48
2. Mortalist 03:09
3. Raped by the Devil 02:11
4. Crucified 03:50
5. Hades (Bathory cover) 02:30
6. Visions of Doom 03:35
7. Blood Red Like Sodomy 06:23
8. Way of the Cross 02:35
9. Ritual Genocide 02:18
******************************
Total playing time: 30:19



Extended info
Tom Cultcommander Bass
Vit Argos Drums
Galin Soulreaper Guitars
Alberth Dust Vocals


Technical info
(IMG:http://metalarea.org/images/spectrogram/2018_Oct/814b9b7464b37f226e9c8212495c9af1.png)
Input File: 03-bestiality-raped_by_the_devil-61742345.mp3
Channels : 2
Sample Rate : 44100
Precision : 16-bit
Duration : 00:02:11.48 = 5798444 samples = 9861.3 CDDA sectors
File Size : 5.39M
Bit Rate : 328k
Sample Encoding: MPEG audio (layer I, II or III)
Comments :
Title=Raped by the Devil
Artist=Bestiality
Album=Stuck in Bestial Vision
Tracknumber=3/9
Year=2018
Genre=Thrash Metal



Register


Go to the top of the page
  Insert nick Quick quote
+Quote Post

Reply to this topicStart new topic
1 User(s) are reading this topic (1 Guests and 0 Anonymous Users)
0 Members:

 



- Lo-Fi Version Support form
Copyrights and abuse reports form
Time is now: 11th December 2018 - 00:46:36