Welcome Guest ( Log In | Register )

> Graveborne - 1918 (2018), Black Metal (D5)
post Oct 11 2018, 06:45:54
Post #1

кручу наждак
**************
Group: Металариец
Posts: 3,578
Releases: 92
From: Самара
On Forums: 8 years 6 months
Thanks: 2692 time(s)
Russian Federation


(IMG:http://metalarea.org/images/audiocovers/2018_Oct/acov_tid311604_thumb.jpg)

*Artist: Graveborne
*Album: 1918
*Year: 2018
*Genre: Black Metal
*Country: Finland (IMG:http://metalarea.org/forum/style_images/flags/Finland.png)
*Format: mp3@CBR128kbps (IMG:http://metalarea.org/images/bit_low.gif)
*Size: 47MB

Tracklist:
1. 1918
2. Myrskytuuli
3. Jääkärin Tie
4. Valkokaarti
5. Susinarttu
6. Kuoleman Kellot
7. Tuomittu
8. Punakaarti
9. Vaiti
10. Jumalan Palvelija
******************************
Total playing time: 50:56



Technical info
(IMG:http://metalarea.org/images/spectrogram/2018_Oct/f451196510ac04940214dde317cba91a.png)
Input File: 01. 1918.mp3
Channels : 2
Sample Rate : 44100
Precision : 16-bit
Duration : 00:02:09.02 = 5689694 samples = 9676.35 CDDA sectors
File Size : 2.07M
Bit Rate : 129k
Sample Encoding: MPEG audio (layer I, II or III)
Comments :
Title=1918
Artist=Graveborne
Album=1918
Tracknumber=01
Year=2018



Register


Go to the top of the page
  Insert nick Quick quote
+Quote Post
 
Start new topic
Replies (1 - 1)
post Oct 11 2018, 13:53:18
Post #2

Два Литра
**
Group: Завсегдатай
Posts: 161
Releases: 4
From: урал
On Forums: 9 years 1 month
Thanks: 227 time(s)
Russian Federation


Жду в 320 альбом хорош!!! На ВС уже 5 раз прогнал!
Go to the top of the page
  Insert nick Quick quote
+Quote Post

Reply to this topicStart new topic
1 User(s) are reading this topic (1 Guests and 0 Anonymous Users)
0 Members:

 



- Lo-Fi Version Support form
Copyrights and abuse reports form
Time is now: 12th December 2018 - 06:56:45