Welcome Guest ( Log In | Register )

> Releases Upload / Добавление релизов

Добавить релиз тут / Click here to add release
Рекомендованные обменники / Recommended file shares

 
Reply to this topicStart new topic
> Gargoyle - Demo 87 [demo] (1987), Heavy/Power Metal
post Oct 11 2018, 06:52:32
Post #1

Digital Regency
****
Group: Металариец
Posts: 349
Releases: 148
From: Chisinau
On Forums: 9 years 6 months
Thanks: 1635 time(s)
Romania


(IMG:http://metalarea.org/images/audiocovers/2018_Oct/acov_tid311605_thumb.jpg)

*Artist: Gargoyle
*Album: Demo 87 [demo]
*Year: 1987
*Genre: Heavy/Power Metal
*Country: United States (IMG:http://metalarea.org/forum/style_images/flags/United%20States.png)
*Format: mp3@CBR192kbps
*Size: 14MB

Tracklist:
1. Into the Darkness 04:04
2. Crimson Red 02:40
3. Man in Black 03:05
******************************
Total playing time: 9:49

Extended info
Portland, Oregon


Technical info
(IMG:http://metalarea.org/images/spectrogram/2018_Oct/d9aaeecb9380e2e88b810aa39c4d0588.png)
Input File: 01. Into The Darkness.mp3
Channels : 2
Sample Rate : 44100
Precision : 16-bit
Duration : 00:04:04.07 = 10763443 samples = 18305.2 CDDA sectors
File Size : 5.86M
Bit Rate : 192k
Sample Encoding: MPEG audio (layer I, II or III)
Comments :
Title=Into The Darkness
Artist=Gargoyle
Album=Demo 87
Tracknumber=01
Year=1987
Genre=Heavy/Power Metal



Register


Thanks:
Go to the top of the page
  Insert nick Quick quote
+Quote Post

Reply to this topicStart new topic
2 User(s) are reading this topic (2 Guests and 0 Anonymous Users)
0 Members:

 



- Lo-Fi Version Support form
Copyrights and abuse reports form
Time is now: 16th October 2018 - 20:24:29