Welcome Guest ( Log In | Register )

> Releases Upload / Добавление релизов

Добавить релиз тут / Click here to add release
Рекомендованные обменники / Recommended file shares

> Life To Those Shadows - Life To Those Shadows (2018), Avant-Garde/Progressive Metal
post Oct 11 2018, 09:13:36
Post #1

Аннигилятор пивА
Group Icon
Group: V.I.P
Posts: 50,741
Releases: 15814
From: Koenigsberg - TILZIT
On Forums: 12 years 6 months
Thanks: 344882 time(s)
Russian Federation


(IMG:https://metalarea.org/images/audiocovers/2018_Oct/acov_tid311606_thumb.jpg)

*Artist: Life To Those Shadows
*Album: Life To Those Shadows
*Year: 2018
*Genre: Avant-Garde/Progressive Metal
*Country: Brazil (IMG:https://metalarea.org/forum/style_images/flags/Brazil.png)
*Format: mp3@CBR320kbps
*Size: 163MB

Tracklist:
01. Universe Within
02. Ocean Mother
03. Satori
04. Intent
05. Red
06. Zenith Embodied Nature
07. The Taste for the Infinite
08. Drain the Blue (Down the Blues)
09. Tempo, eterno vento
10. Pirlimpsiquice
11. Wreck Age
12. Soma
13. Agni
14. Mind Rebellion
15. Luke in the Sky Profane Illumination
******************************
Total playing time: 1:09:42




Extended info
Thiago Viana - Acoustic and Electric Guitars, Bass, Clean and Lead Vocals
Igor Almeida - Drums, Synthesizers
Special guest:
Luiz Camporez - Synthesizers, Effects, Voice and Tribal Choir
Lânio Araújo - Harsh and Drive Vocals
Arthur Bergamaschi - Harsh Vocals
Danilo Marques - Clean Vocals
Pedro Cruz - Clean Vocals
Rafael Marinho: Tribal Choir
Raphael Rocha: Synthesizers




Technical info
(IMG:https://metalarea.org/images/spectrogram/2018_Oct/75c36d3952332976c76d2a41598ef811.png)
Input File: 04 Intent.mp3
Channels : 2
Sample Rate : 44100
Precision : 16-bit
Duration : 00:04:07.27 = 10904387 samples = 18544.9 CDDA sectors
File Size : 9.94M
Bit Rate : 321k
Sample Encoding: MPEG audio (layer I, II or III)
Comments :
Title=Intent
Artist=Life To Those Shadows
Album=Life to Those Shadows
Tracknumber=04/15
Year=2018
Discnumber=1/1



Register


Go to the top of the page
  Insert nick Quick quote
+Quote Post
 
Start new topic
Replies (1 - 1)
post Oct 11 2018, 16:51:47
Post #2

Пять Литров
*****
Group: Металариец
Posts: 402
Releases: 0
On Forums: 11 years 11 months
Thanks: 51 time(s)
Russian Federation


Я хз как весь альбом, но по ютубовскому превью ...метал конечно, прогрессив да, но не авангард. И звукарю я бы по рукам надавал бы: бас бочки ну настолько вперед выдвинуты, аж уши закладывает. Слушаю через Shure SRH-440.
Go to the top of the page
  Insert nick Quick quote
+Quote Post

Reply to this topicStart new topic
1 User(s) are reading this topic (1 Guests and 0 Anonymous Users)
0 Members:

 



- Lo-Fi Version Support form
Copyrights and abuse reports form
Time is now: 11th December 2018 - 02:08:56