Welcome Guest ( Log In | Register )

> Releases Upload / Добавление релизов

Добавить релиз тут / Click here to add release
Рекомендованные обменники / Recommended file shares

 
Reply to this topicStart new topic
> Goreskincoffin - Cursed Paths [ep] (2018), Black/Death Metal
post Oct 11 2018, 09:20:27
Post #1

Аннигилятор пивА
Group Icon
Group: V.I.P
Posts: 50,741
Releases: 15814
From: Koenigsberg - TILZIT
On Forums: 12 years 6 months
Thanks: 344877 time(s)
Russian Federation


(IMG:https://metalarea.org/images/audiocovers/2018_Oct/acov_tid311607_thumb.jpg)

*Artist: Goreskincoffin
*Album: Cursed Paths [ep]
*Year: 2018
*Genre: Black/Death Metal
*Country: United States (IMG:https://metalarea.org/forum/style_images/flags/United%20States.png)
*Format: mp3@CBR320kbps
*Size: 19MB

Tracklist:
1. Crossing 02:21
2. Halls Ov Pleasure 03:02
3. The Great Culling 02:47
******************************
Total playing time: 8:10




Extended info
Vocals - Cody Winter
Drums - Dean Rice
Bass - Justice Reckis
Guitars - Dustin Stark


Technical info
(IMG:https://metalarea.org/images/spectrogram/2018_Oct/f0f67b0a51046e87841b4578ccc52312.png)
Input File: GoreSkinCoffin - Cursed Paths E.P. - 02 Halls Ov Pleasure.mp3
Channels : 2
Sample Rate : 44100
Precision : 16-bit
Duration : 00:03:02.53 = 8049441 samples = 13689.5 CDDA sectors
File Size : 7.44M
Bit Rate : 326k
Sample Encoding: MPEG audio (layer I, II or III)
Comments :
Title=Halls Ov Pleasure
Artist=GoreSkinCoffin
Album=Cursed Paths E.P.
Tracknumber=2
Year=2018



Register


Go to the top of the page
  Insert nick Quick quote
+Quote Post

Reply to this topicStart new topic
1 User(s) are reading this topic (1 Guests and 0 Anonymous Users)
0 Members:

 



- Lo-Fi Version Support form
Copyrights and abuse reports form
Time is now: 11th December 2018 - 01:08:33