Welcome Guest ( Log In | Register )

> Releases Upload / Добавление релизов

Добавить релиз тут / Click here to add release
Рекомендованные обменники / Recommended file shares

> Aeternus - Heathen (2018), Death Metal
post Oct 11 2018, 12:17:04
Post #1
BAN
Banned till
Oct 20 2018, 09:33:06



(IMG:http://metalarea.org/images/audiocovers/2018_Oct/acov_tid311611_thumb.jpg)

*Artist: Aeternus
*Album: Heathen
*Year: 2018
*Genre: Death Metal
*Country: Norway (IMG:http://metalarea.org/forum/style_images/flags/Norway.png)
*Format: mp3@CBR320kbps
*Size: 83MB

Tracklist:
1. Hedning 06:06
2. The Sword of Retribution 04:49
3. Conjuring of the Gentiles 06:26
4. The Significance of Iblis 03:58
5. How Opaque the Disguise of the Adversary 04:31
6. Boudica 04:48
7. ‘Illa Mayyit 05:06
******************************
Total playing time: 35:44




Extended info
Ares Vocals, Guitars
Phobos Drums
Eld Bass


Technical info
(IMG:http://metalarea.org/images/spectrogram/2018_Oct/d3fdb0839ee9477181e9c5d9f34cb83f.png)
Input File: 03 Conjuring of the Gentiles.mp3
Channels : 2
Sample Rate : 44100
Precision : 16-bit
Duration : 00:06:25.54 = 17002270 samples = 28915.4 CDDA sectors
File Size : 15.7M
Bit Rate : 325k
Sample Encoding: MPEG audio (layer I, II or III)
Comments :
Title=Conjuring of the Gentiles
Artist=Aeternus
Album=Heathen
Tracknumber=3/7
Year=2018
Genre=Metal
Discnumber=1/1



Register


Go to the top of the page
  Insert nick Quick quote
+Quote Post
 
Start new topic
Replies (1 - 9)
post Oct 11 2018, 12:44:40
Post #2
BAN
Banned till
Oct 20 2018, 09:33:06



Cloud Mail 320
Register


Go to the top of the page
  Insert nick Quick quote
+Quote Post
post Oct 11 2018, 16:03:16
Post #3

Три Литра
***
Group: Завсегдатай
Posts: 277
Releases: 54
From: Rostov-on-Don, Russia
On Forums: 11 years 11 months
Thanks: 546 time(s)
Russian Federation


Больше на Dark Metal смахивает (IMG:style_emoticons/default/smile1.gif)
Go to the top of the page
  Insert nick Quick quote
+Quote Post
post Oct 11 2018, 17:19:40
Post #4

Crush! Kill! Destroy!
**************
Group: Металариец
Posts: 4,602
Releases: 15
From: Kaliningrad
On Forums: 10 years 10 months
Thanks: 4287 time(s)
Russian Federation


Как бы спорный death, но альбом хороший.
Go to the top of the page
  Insert nick Quick quote
+Quote Post
post Oct 11 2018, 18:12:30
Post #5

железный нечеловек
**********
Group: Металариец
Posts: 1,024
Releases: 3
From: Уфа
On Forums: 9 years 5 months
Thanks: 322 time(s)
Russian Federation


Как бэ всегда средняя группа была, вначале карьеры неплохо доставляла, даже на этапе второго-третьего альбома казалось достаточно самобытна, но время всё расставило по местам. Лучше Арес играл бы в Горгороте как раньше
Go to the top of the page
  Insert nick Quick quote
+Quote Post
post Oct 11 2018, 21:00:29
Post #6

Пять Литров
*****
Group: Металариец
Posts: 491
Releases: 7
From: Kimry, Tver Region
On Forums: 11 years 7 months
Thanks: 1283 time(s)
Russian Federation


Go to the top of the page
  Insert nick Quick quote
+Quote Post
post Oct 12 2018, 07:11:40
Post #7

Русь Понад Усе!
**************
Group: Металариец
Posts: 4,068
Releases: 15
From: Украина
On Forums: 11 years 1 month
Thanks: 1565 time(s)
Ukraine


Очень даже не плохо, думал будет хуже (IMG:style_emoticons/default/smile1.gif) (IMG:style_emoticons/default/bye.gif)
Go to the top of the page
  Insert nick Quick quote
+Quote Post
post Oct 12 2018, 12:05:57
Post #8

Солнце за Нас !
***
Group: Завсегдатай
Posts: 249
Releases: 0
On Forums: 11 years 7 months
Thanks: 37 time(s)
Belarus


Даже после одного прослушивания очень даже хорошо. Интересный альбом, среднетемповый, с красивыми мелодиями и вставками. Да и сыгран и сведен, как всегда, на должном уровне, звук обалденный, надо брать на CD.
Go to the top of the page
  Insert nick Quick quote
+Quote Post
post Oct 12 2018, 16:53:14
Post #9

Маньяк
**********
Group: Металариец
Posts: 1,430
Releases: 0
From: Dnipro
On Forums: 10 years 3 months
Thanks: 387 time(s)
Ukraine


Альбом затягивает, из всех щелей колонок прет Скандинавией. Так еще нужно уметь сыграть.
Go to the top of the page
  Insert nick Quick quote
+Quote Post
post Yesterday, 02:15:29
Post #10

Победитель судьбы
**************
Group: Металариец
Posts: 5,141
Releases: 0
From: Страны Мамонтов
On Forums: 11 years 7 months
Thanks: 1768 time(s)
Antarctica


Еще хуже, чем всегда. Не стоило им возвращаться
Go to the top of the page
  Insert nick Quick quote
+Quote Post

Reply to this topicStart new topic
2 User(s) are reading this topic (2 Guests and 0 Anonymous Users)
0 Members:

 



- Lo-Fi Version Support form
Copyrights and abuse reports form
Time is now: 15th October 2018 - 12:21:54