Welcome Guest ( Log In | Register )

> Releases Upload / Добавление релизов

Добавить релиз тут / Click here to add release
Рекомендованные обменники / Recommended file shares

> Stam1Na - Taival (2018), Atmospheric/Progressive Metal
post Oct 11 2018, 12:20:26
Post #1

Аннигилятор пивА
Group Icon
Group: V.I.P
Posts: 49,399
Releases: 15242
From: Koenigsberg - TILZIT
On Forums: 12 years 4 months
Thanks: 332676 time(s)
Russian Federation


(IMG:https://metalarea.org/images/audiocovers/2018_Oct/acov_tid311612_thumb.jpg)

*Artist: Stam1Na
*Album: Taival
*Year: 2018
*Genre: Atmospheric/Progressive Metal
*Country: Finland (IMG:https://metalarea.org/forum/style_images/flags/Finland.png)
*Format: mp3@CBR320kbps
*Size: 103MB

Tracklist:
01. Hyvää Yötä
02. Solar
03. Elämänlanka
04. Enkelinmurskain
05. Gaian Lapsi
06. Metsästäjä, I Metsästäjä
07. Metsästäjä, II Ero
08. Metsästäjä, III Ylösalainen
09. Sudet Tulevat
10. Merivälimatka
11. Kannoin Sinut Läpi Hiljaisen Huoneen
12. Kajo
******************************
Total playing time: 40:59



Extended info
Antti "Hyrde" Hyyrynen - Vocals, Guitars (Pitbull Terrorist, ex-Tuska20, WÖYH!, ex-Armour, ex-Nakki, ex-Royal Max, ex-Royal Max 2, ex-Sojottava Keppi)
Teppo "Kake" Velin - Drums (ex-Nakki)
Pekka "Pexi" Olkkonen - Guitars (ex-Nakki)
Kai-Pekka "Kaikka" Kangasmäki - Bass (ex-Frail from Inside, ex-Disease of the Nation, ex-Devilhorn)
Emil Lähteenmäki - Keyboards


Technical info
(IMG:https://metalarea.org/images/spectrogram/2018_Oct/61f6c77ccdcee07e3a9d08c4879bd41c.png)
Input File: 02 Solar.mp3
Channels : 2
Sample Rate : 44100
Precision : 16-bit
Duration : 00:03:55.54 = 10387138 samples = 17665.2 CDDA sectors
File Size : 10.0M
Bit Rate : 341k
Sample Encoding: MPEG audio (layer I, II or III)
Comments :
Title=Solar
Artist=Stam1na
Album=Taival
Tracknumber=2/12/12
Year=2018
Genre=Rock
Discnumber=1/1/1



Register


Go to the top of the page
  Insert nick Quick quote
+Quote Post
 
Start new topic
Replies (1 - 4)
post Oct 11 2018, 12:30:45
Post #2

Аннигилятор пивА
Group Icon
Group: V.I.P
Posts: 49,399
Releases: 15242
From: Koenigsberg - TILZIT
On Forums: 12 years 4 months
Thanks: 332676 time(s)
Russian Federation


MIRROR
Register



Thanks:
Go to the top of the page
  Insert nick Quick quote
+Quote Post
post Oct 12 2018, 06:58:42
Post #3

Два Литра
**
Group: Завсегдатай
Posts: 155
Releases: 0
From: Ташкент
On Forums: 10 years 8 months
Thanks: 31 time(s)
Uzbekistan


Очень забавный музон, впрочем, как и всегда у них ))
Хорошие они мелодисты, причем при этом тяжести тоже хватает.
И язык обедню не портит.
Go to the top of the page
  Insert nick Quick quote
+Quote Post
post Oct 12 2018, 07:16:10
Post #4

И Ван Дамм По Делам Вашим!
**************
Group: Металариец
Posts: 16,114
Releases: 27
On Forums: 10 years 3 months
Thanks: 8565 time(s)
Honduras


ЦИТАТА(JPV @ Oct 12 2018, 08:58:42) *
И язык обедню не портит.

Он -украшение альбома, как он может что-то испортить?
Go to the top of the page
  Insert nick Quick quote
+Quote Post
post Oct 12 2018, 09:10:05
Post #5

Семь Литров
*******
Group: Металариец
Posts: 729
Releases: 0
From: Харьков
On Forums: 9 years 2 weeks
Thanks: 235 time(s)
Ukraine


ЦИТАТА(hammer @ Oct 12 2018, 09:16:10) *
Он - украшение альбома, как он может что-то испортить?

Лично для меня финский язык - скорее минус. Впрочем, и группа-то не блещет.
Go to the top of the page
  Insert nick Quick quote
+Quote Post

Reply to this topicStart new topic
2 User(s) are reading this topic (2 Guests and 0 Anonymous Users)
0 Members:

 



- Lo-Fi Version Support form
Copyrights and abuse reports form
Time is now: 16th October 2018 - 20:30:37