Welcome Guest ( Log In | Register )

> Releases Upload / Добавление релизов

Добавить релиз тут / Click here to add release
Рекомендованные обменники / Recommended file shares

> Verni - Barricade (2018), Heavy Metal
post Oct 11 2018, 12:29:40
Post #1

Аннигилятор пивА
Group Icon
Group: V.I.P
Posts: 49,399
Releases: 15242
From: Koenigsberg - TILZIT
On Forums: 12 years 4 months
Thanks: 332665 time(s)
Russian Federation


(IMG:https://metalarea.org/images/audiocovers/2018_Oct/acov_tid311613_thumb.jpg)

*Artist: Verni
*Album: Barricade
*Year: 2018
*Genre: Heavy Metal
*Country: United States (IMG:https://metalarea.org/forum/style_images/flags/United%20States.png)
*Format: mp3@CBR320kbps
*Size: 115MB

Tracklist:
01. Fire Up
02. Miracle Drug
03. Off My Leash
04. (We Are) The Broken Ones
05. Lost In The Underground
06. The Part Of No
07. Night Of The Swamp King
08. We Were Young
09. Slow My Ride
10. Heaven Calling
******************************
Total playing time: 46:30

Extended info

DD Verni (Overkill) - Vocals, Bass, Guitars
Andre "Virus" Karkos - Guitars
Ron Lipnicki (Overkill) - Drums

Guitar solo's by:
Jeff Loomis (Arch Enemy)
Jeff Waters (Annihilator)
Bruce Franklin (Trouble)
Mike Romeo (Symphony X)
Andre "Virus" Karkos (Dope)
Steve Leonard (Almost Queen)
Angus Clark (Trans Siberian Orchestra)
Mike Orlando (Adrenalin Mob)




Technical info
(IMG:https://metalarea.org/images/spectrogram/2018_Oct/fcca3e234ca3c24550b41ad2e1c12554.png)
Input File: 02 Miracle Drug.mp3
Channels : 2
Sample Rate : 44100
Precision : 16-bit
Duration : 00:04:31.35 = 11966447 samples = 20351.1 CDDA sectors
File Size : 11.5M
Bit Rate : 338k
Sample Encoding: MPEG audio (layer I, II or III)
Comments :
Title=Miracle Drug
Artist=Verni
Album=Barricade
Tracknumber=2/10/10
Year=2018
Genre=Rock
Discnumber=1/1/1



Register


Go to the top of the page
  Insert nick Quick quote
+Quote Post
 
Start new topic
Replies (1 - 2)
post Oct 11 2018, 13:02:28
Post #2

Аннигилятор пивА
Group Icon
Group: V.I.P
Posts: 49,399
Releases: 15242
From: Koenigsberg - TILZIT
On Forums: 12 years 4 months
Thanks: 332665 time(s)
Russian Federation


сольный проект басиста Overkill... и до кучи их барабанера (IMG:style_emoticons/default/crazy.gif)

MIRROR
Register


Thanks:
(1) vir2al,
Go to the top of the page
  Insert nick Quick quote
+Quote Post
post Oct 12 2018, 11:58:55
Post #3

hearer & reader
**************
Group: Металариец
Posts: 6,961
Releases: 88
From: Moscow
On Forums: 11 years 1 month
Thanks: 6684 time(s)
Russian Federation



Альтернативно-модерновая шняга.
Вклад Верни в дело NWOAHM.
Go to the top of the page
  Insert nick Quick quote
+Quote Post

Reply to this topicStart new topic
2 User(s) are reading this topic (2 Guests and 0 Anonymous Users)
0 Members:

 



- Lo-Fi Version Support form
Copyrights and abuse reports form
Time is now: 16th October 2018 - 19:35:33