Welcome Guest ( Log In | Register )

> Releases Upload / Добавление релизов

Добавить релиз тут / Click here to add release
Рекомендованные обменники / Recommended file shares

> Gama Bomb - Speed Between The Lines (2018), Speed/Thrash Metal
post Oct 11 2018, 12:35:26
Post #1

Аннигилятор пивА
Group Icon
Group: V.I.P
Posts: 49,400
Releases: 15242
From: Koenigsberg - TILZIT
On Forums: 12 years 4 months
Thanks: 332677 time(s)
Russian Federation


(IMG:https://metalarea.org/images/audiocovers/2018_Oct/acov_tid311614_thumb.jpg)

*Artist: Gama Bomb
*Album: Speed Between The Lines
*Year: 2018
*Genre: Speed/Thrash Metal
*Country: United Kingdom (IMG:https://metalarea.org/forum/style_images/flags/United%20Kingdom.png)
*Format: mp3@CBR320kbps
*Size: 86MB

Tracklist:
1. Give Me Leather 03:50
2. A Hanging 02:43
3. 666teen 02:56
4. Bring Out the Monster 03:45
5. R.I.P. U 03:10
6. Motorgeist 03:08
7. Alt-Reich 02:18
8. Stay Rotten 02:14
9. We R Going 2 Eat U 02:23
10. Kurt Russell 02:59
11. World Gone to Hell 02:24
12. Faceblaster 03:06
******************************
Total playing time: 34:56



Extended info
Joe McGuigan - Bass, Vocals (2002-present) See also: ex-Short Sharp Shock
Philly Byrne - Vocals (2002-present)
Paul Caffrey - Drums (2005-present) See also: ex-Atomkraft
Domo Dixon - Guitars (lead) (2005-present)
John Roche - Guitars (rhythm) (2012-present) See also: Grot, ex-Slave Zero


Technical info
(IMG:https://metalarea.org/images/spectrogram/2018_Oct/c88a0e5dbab6c3f6ff98f3eb9eaf4c9a.png)
Input File: 02 A Hanging.mp3
Channels : 2
Sample Rate : 44100
Precision : 16-bit
Duration : 00:02:43.74 = 7221110 samples = 12280.8 CDDA sectors
File Size : 7.01M
Bit Rate : 342k
Sample Encoding: MPEG audio (layer I, II or III)
Comments :
Title=A Hanging
Artist=Gama Bomb
Album=Speed Between the Lines
Tracknumber=2/12
Year=2018
Genre=Rock
Discnumber=1/1



Register


Go to the top of the page
  Insert nick Quick quote
+Quote Post
 
Start new topic
Replies (1 - 8)
post Oct 11 2018, 13:00:50
Post #2

Аннигилятор пивА
Group Icon
Group: V.I.P
Posts: 49,400
Releases: 15242
From: Koenigsberg - TILZIT
On Forums: 12 years 4 months
Thanks: 332677 time(s)
Russian Federation


MIRROR
Register

Register






Go to the top of the page
  Insert nick Quick quote
+Quote Post
post Oct 12 2018, 12:22:59
Post #3

Пять Литров
*****
Group: Металариец
Posts: 477
Releases: 0
On Forums: 9 years 3 months
Thanks: 104 time(s)
Ukraine


мы н е зря ждали несколько лет нового альбома,дождались альбом на твёрдую четвёрку,группа всегда была в ТОП 10 лучших трэшевых групп новой волны но,её музыку нужно воспринимать как простенький техничный трэшачок,и всё по канонам жанра но,не более,серьёзных композиций они никогда не создавали.Под насторение и хороший трещшевый фон само то!!Спасибо за раздачу!!
Go to the top of the page
  Insert nick Quick quote
+Quote Post
post Oct 12 2018, 12:29:31
Post #4

Ёлд ХеллоВяйне
Group Icon
Group: V.I.P
Posts: 26,085
Releases: 130
From: Питер
On Forums: 11 years 11 months
Thanks: 14426 time(s)
Russian Federation


Клипы же обычно на лучшие темы снимают, да? Всё очень плохо.
Go to the top of the page
  Insert nick Quick quote
+Quote Post
post Oct 12 2018, 12:39:25
Post #5

Правь статус, ####!111
**************
Group: Металариец
Posts: 5,214
Releases: 0
From: Primorye.ru
On Forums: 7 years 6 months
Thanks: 1031 time(s)
Russian Federation


Ирландцы подняли настроение с самого утра. Мне по вкусу Speed Between The Lines
Go to the top of the page
  Insert nick Quick quote
+Quote Post
post Oct 12 2018, 16:45:45
Post #6

Маньяк
**********
Group: Металариец
Posts: 1,430
Releases: 0
From: Dnipro
On Forums: 10 years 3 months
Thanks: 388 time(s)
Ukraine


Очень не плохой альбом, впрочем как и всегда.
Go to the top of the page
  Insert nick Quick quote
+Quote Post
post Oct 12 2018, 16:54:01
Post #7

И Ван Дамм По Делам Вашим!
**************
Group: Металариец
Posts: 16,114
Releases: 27
On Forums: 10 years 3 months
Thanks: 8565 time(s)
Honduras


Первая темка не плоха, а потом как то не фонтан.Всего 4ре пока послушал.
Go to the top of the page
  Insert nick Quick quote
+Quote Post
post Oct 14 2018, 09:15:30
Post #8

Маньяк
**********
Group: Металариец
Posts: 1,300
Releases: 5
From: Нью-Васюки
On Forums: 12 years 4 months
Thanks: 373 time(s)
Russian Federation


Облогу они конечно мутную сделали, больше под глэм подходит
Go to the top of the page
  Insert nick Quick quote
+Quote Post
post Oct 14 2018, 14:30:25
Post #9

Маньяк
**********
Group: Металариец
Posts: 1,255
Releases: 0
On Forums: 10 years 8 months
Thanks: 494 time(s)
Russian Federation


Как то по наклонной, или восприятие уже не то. Во всяком случае тот задор что был на Citizen Brain уже не ощущается. Так то неплохо конечно.
Go to the top of the page
  Insert nick Quick quote
+Quote Post

Reply to this topicStart new topic
2 User(s) are reading this topic (2 Guests and 0 Anonymous Users)
0 Members:

 



- Lo-Fi Version Support form
Copyrights and abuse reports form
Time is now: 16th October 2018 - 20:43:34