Welcome Guest ( Log In | Register )

> Releases Upload / Добавление релизов

Добавить релиз тут / Click here to add release
Рекомендованные обменники / Recommended file shares

> Darkness - First Class Violence (2018), Thrash Metal
post Oct 11 2018, 12:36:34
Post #1

Правь статус, ####!111
**************
Group: Металариец
Posts: 15,301
Releases: 10448
From: Г.Харьков
On Forums: 6 years 7 months
Thanks: 173167 time(s)
Unknown


(IMG:http://metalarea.org/images/audiocovers/2018_Oct/acov_tid311615_thumb.jpg)

*Artist: Darkness
*Album: First Class Violence
*Year: 2018
*Genre: Thrash Metal
*Country: Germany (IMG:http://metalarea.org/forum/style_images/flags/Germany.png)
*Format: mp3@CBR320kbps
*Size: 94MB

Tracklist:
1. Prelude in E (intro) 01:12 instrumental
2. Low Velocity Blood Spatter 04:11
3. Neoprimitive 04:34
4. Hate Is My Engine 04:05
5. See You on the Bodyfarm 03:57
6. Zeutan 03:07
7. The Autocrazy (Autocracy) Club 04:42
8. Born Dead 04:44
9. First Class Violence 04:22
10. I Betray 05:57
******************************
Total playing time: 40:51



Extended info
Lacky Drums, Vocals
Arnd Guitars, Vocals
Meik Guitars
Dirk Bass
Lee Vocals


Technical info
(IMG:http://metalarea.org/images/spectrogram/2018_Oct/ad3cbe43d6be7e4da52629784d8d0348.png)
Input File: 03 Neoprimitive.mp3
Channels : 2
Sample Rate : 44100
Precision : 16-bit
Duration : 00:04:33.80 = 12074756 samples = 20535.3 CDDA sectors
File Size : 11.0M
Bit Rate : 320k
Sample Encoding: MPEG audio (layer I, II or III)
Comments :
Title=Neoprimitive
Artist=Darkness
Album=First Class Violence
Tracknumber=03/10
Year=2018
Genre=Rock
Discnumber=1/1



Register


Go to the top of the page
  Insert nick Quick quote
+Quote Post
 
Start new topic
Replies (1 - 6)
post Oct 11 2018, 13:01:56
Post #2

\m/
Group Icon
Group: S-moderation team
Posts: 7,557
Releases: 19
From: Петропавловск-Камчатский
On Forums: 9 years 5 months
Thanks: 6905 time(s)
Russian Federation




Go to the top of the page
  Insert nick Quick quote
+Quote Post
post Oct 11 2018, 13:05:38
Post #3

Правь статус, ####!111
**************
Group: Металариец
Posts: 15,301
Releases: 10448
From: Г.Харьков
On Forums: 6 years 7 months
Thanks: 173167 time(s)
Unknown


Cloud Mail 320
Register


Go to the top of the page
  Insert nick Quick quote
+Quote Post
post Oct 12 2018, 16:50:36
Post #4

Мегаманьяк
***********
Group: Металариец
Posts: 1,738
Releases: 0
From: Dnipro
On Forums: 10 years 4 months
Thanks: 459 time(s)
Ukraine


Слов нет, это классика!!! (IMG:style_emoticons/default/20.gif)
Go to the top of the page
  Insert nick Quick quote
+Quote Post
post Oct 13 2018, 07:38:24
Post #5

Правь статус, ####!111
**************
Group: Металариец
Posts: 5,246
Releases: 0
From: Primorye.ru
On Forums: 7 years 8 months
Thanks: 1048 time(s)
Russian Federation


... тоже одни эмоции, на уровне предыдущего!
Go to the top of the page
  Insert nick Quick quote
+Quote Post
post Oct 14 2018, 09:13:07
Post #6

Маньяк
**********
Group: Металариец
Posts: 1,320
Releases: 5
From: Нью-Васюки
On Forums: 12 years 6 months
Thanks: 376 time(s)
Russian Federation


Отличный альбом
Go to the top of the page
  Insert nick Quick quote
+Quote Post
post Oct 23 2018, 12:17:37
Post #7

South Of Heaven /адепт ВУДУ
**************
Group: Металариец
Posts: 13,163
Releases: 7
From: Санкт-Петербург
On Forums: 8 years 8 months
Thanks: 4807 time(s)
Russian Federation


Да, гуд!
Go to the top of the page
  Insert nick Quick quote
+Quote Post

Reply to this topicStart new topic
1 User(s) are reading this topic (1 Guests and 0 Anonymous Users)
0 Members:

 



- Lo-Fi Version Support form
Copyrights and abuse reports form
Time is now: 11th December 2018 - 01:18:36