Welcome Guest ( Log In | Register )

> Dragony - Masters Of The Multiverse (2018), Melodic Power Metal (D4)
post Oct 11 2018, 12:46:29
Post #1

Аннигилятор пивА
Group Icon
Group: V.I.P
Posts: 52,222
Releases: 16500
From: Koenigsberg - TILZIT
On Forums: 12 years 8 months
Thanks: 357281 time(s)
Russian Federation


(IMG:https://metalarea.org/images/audiocovers/2018_Oct/acov_tid311616_thumb.jpg)

*Artist: Dragony
*Album: Masters Of The Multiverse
*Year: 2018
*Genre: Melodic Power Metal
*Country: Austria (IMG:https://metalarea.org/forum/style_images/flags/Austria.png)
*Format: mp3@CBR320kbps
*Size: 126MB

Tracklist:
01. Flame Of Tar Valon
02. If It Bleeds We Can Kill It
03. Grey Wardens
04. Defenders
05. Fallen Star
06. Angels On Neon Wings
07. Days Of High Adventure
08. Evermore
09. The Iron Price
10. Eternia Eternal (The Masters Of The Multiverse)
11. The Touch
******************************
Total playing time: 50:02



Extended info
Herbert Glos - Bass (Visions of Atlantis)
Frederic Brünner - Drums (ex-Siren's Cry, Planewalker, ex-Satory)
Andreas Poppernitsch - Guitars (Omega Effect)
Siegfried "The Dragonslayer" Samer - Vocals (lead) (Visions of Atlantis, ex-Eleftheria)
Simon Saito - Guitars
Manuel Hartleb - Keyboards



Technical info
(IMG:https://metalarea.org/images/spectrogram/2018_Oct/59fcad461adeddd15c0b71fabe2a62b0.png)
Input File: 03 Grey Wardens.mp3
Channels : 2
Sample Rate : 44100
Precision : 16-bit
Duration : 00:04:31.09 = 11954937 samples = 20331.5 CDDA sectors
File Size : 11.8M
Bit Rate : 347k
Sample Encoding: MPEG audio (layer I, II or III)
Comments :
Title=Grey Wardens
Artist=Dragony
Album=Masters of the Multiverse
Tracknumber=3/10
Year=2018
Genre=Metal
Discnumber=1/1



Register


Go to the top of the page
  Insert nick Quick quote
+Quote Post
 
Start new topic
Replies (1 - 3)
post Oct 11 2018, 13:04:26
Post #2

Аннигилятор пивА
Group Icon
Group: V.I.P
Posts: 52,222
Releases: 16500
From: Koenigsberg - TILZIT
On Forums: 12 years 8 months
Thanks: 357281 time(s)
Russian Federation


MIRROR
Register




Go to the top of the page
  Insert nick Quick quote
+Quote Post
post Oct 12 2018, 16:49:28
Post #3

Dark Ambient Shoujo
**********
Group: Металариец
Posts: 1,086
Releases: 1
On Forums: 10 years 1 month
Thanks: 542 time(s)
Russian Federation


Диабет-метал.
Go to the top of the page
  Insert nick Quick quote
+Quote Post
post Oct 13 2018, 23:49:04
Post #4
BAN
Banned till
Feb 22 2019, 14:03:52



ЦИТАТА(Dreamtale @ Oct 12 2018, 18:49:28) *
Диабет-метал.

Жопа склеилась?!
Go to the top of the page
  Insert nick Quick quote
+Quote Post

Reply to this topicStart new topic
2 User(s) are reading this topic (2 Guests and 0 Anonymous Users)
0 Members:

 



- Lo-Fi Version Support form
Copyrights and abuse reports form
Time is now: 17th February 2019 - 04:18:24