Welcome Guest ( Log In | Register )

> Releases Upload / Добавление релизов

Добавить релиз тут / Click here to add release
Рекомендованные обменники / Recommended file shares

> Benighted - Dogs Always Bite Harder Than Their Master [ep] (2018), Death Metal/Grind
post Oct 11 2018, 13:10:48
Post #1

Аннигилятор пивА
Group Icon
Group: V.I.P
Posts: 50,741
Releases: 15814
From: Koenigsberg - TILZIT
On Forums: 12 years 6 months
Thanks: 344878 time(s)
Russian Federation


(IMG:https://metalarea.org/images/audiocovers/2018_Oct/acov_tid311617_thumb.jpg)

*Artist: Benighted
*Album: Dogs Always Bite Harder Than Their Master [ep]
*Year: 2018
*Genre: Death Metal/Grind
*Country: France (IMG:https://metalarea.org/forum/style_images/flags/France.png)
*Format: mp3@CBR320kbps
*Size: 77MB

Tracklist:
01. Teeth and Hatred
02. Martyr
03. Dogs Always Bite Harder Than Their Master
04. Slaughter of the Soul (At the Gates Cover)
05. Reptilian (Live in Lyon, May 2018)
06. Cum with Disgust (feat. Black Bomb A) (Live in Lyon)
07. Spit (feat. Shining) (Live in Lyon)
08. Necrobreed (Live in Lyon)
09. Unborn Infected Children (feat. Aborted) (Live in Lyon)
10. Foetus (feat. Unfathomable Ruination) (Live in Lyon)
******************************
Total playing time: 33:53

Extended info
Julien Truchan - Vocals (lead) (1998-present) See also: ex-Dishumanized
Pierre Arnoux - Bass, Vocals (backing) (2014-present), Guitars (live) (2017) See also: ex-Winds of Torment, ex-Aabsinthe, ex-High For A Dive, ex-Poumon
Emmanuel Dalle - Guitars (2014-present) See also: ex-Horgoth, Deficience, ex-Furax
Kévin Paradis - Drums (2017-present) See also: Agressor, Death Lab, Mithridatic, Serocs, The Arisen, ex-Dead Talking Mind, ex-DeadlySins, ex-Gorsed Noctis, ex-Svart Crown, ex-Deathawaits, ex-Melechesh, ex-Seth, ex-Shining, ex-The Seven Gates, ex-Gods of Hate
Fabien "Fack" Desgardins - Guitars (2017-present) See also: Freitot, Infected Society, Carnival in Coal, We All Die (Laughing), ex-Burgul Torkhaïn, ex-Drowning, ex-Yyrkoon, ex-Ashura, ex-Decline of Humanity


Technical info
(IMG:https://metalarea.org/images/spectrogram/2018_Oct/6c7ee6e6b5fb99e39ec859700e468672.png)
Input File: 02. Martyr.mp3
Channels : 2
Sample Rate : 44100
Precision : 16-bit
Duration : 00:03:02.87 = 8064435 samples = 13715 CDDA sectors
File Size : 7.32M
Bit Rate : 320k
Sample Encoding: MPEG audio (layer I, II or III)
Comments :
Title=Martyr
Artist=Benighted
Album=Dogs Always Bite Harder Than Their Master
Tracknumber=02/10
Year=2018
Discnumber=1/1



Register


Go to the top of the page
  Insert nick Quick quote
+Quote Post
 
Start new topic
Replies (1 - 7)
post Oct 11 2018, 13:41:45
Post #2

Аннигилятор пивА
Group Icon
Group: V.I.P
Posts: 50,741
Releases: 15814
From: Koenigsberg - TILZIT
On Forums: 12 years 6 months
Thanks: 344878 time(s)
Russian Federation


mirror
Register





Go to the top of the page
  Insert nick Quick quote
+Quote Post
post Oct 11 2018, 14:17:08
Post #3

Семь Литров
*******
Group: Металариец
Posts: 742
Releases: 299
On Forums: 5 years 9 months
Thanks: 1671 time(s)
Sweden


ЦИТАТА(aesteticvice @ 11th October 2018 - 16:10:48) *
Slaughter of the Soul (At the Gates Cover)

10/10, прям коктейль из Defaced + This Ending + Archspire (IMG:style_emoticons/default/crazy.gif)
Go to the top of the page
  Insert nick Quick quote
+Quote Post
post Oct 11 2018, 15:25:38
Post #4

Crush! Kill! Destroy!
**************
Group: Металариец
Posts: 4,737
Releases: 15
From: Kaliningrad
On Forums: 11 years 3 weeks
Thanks: 4367 time(s)
Russian Federation


Наконец-то можно послушать песню AtG с нормальным барабанщиком, а не их унылым утырком.
Go to the top of the page
  Insert nick Quick quote
+Quote Post
post Oct 15 2018, 15:19:05
Post #5

Четыре Литра
****
Group: Металариец
Posts: 329
Releases: 0
On Forums: 1 year 1 month
Thanks: 125 time(s)
Unknown


ЦИТАТА(Dmitry1977 @ Oct 11 2018, 15:25:38) *
Наконец-то можно послушать песню AtG с нормальным барабанщиком, а не их унылым утырком.

Тот случай когда кавер круче самого оригинала.

А епиха просто убойная, что живые треки, что студийные
Go to the top of the page
  Insert nick Quick quote
+Quote Post
post Oct 30 2018, 13:47:35
Post #6

hearer & reader
**************
Group: Металариец
Posts: 7,220
Releases: 92
From: Moscow
On Forums: 11 years 3 months
Thanks: 6865 time(s)
Russian Federation


Ураган, эталонный десграйнд.
Go to the top of the page
  Insert nick Quick quote
+Quote Post
post Nov 2 2018, 13:24:26
Post #7

Ледоруб
**************
Group: Металариец
Posts: 20,901
Releases: 0
From: Санкт-Петербург
On Forums: 9 years 2 months
Thanks: 6776 time(s)
Russian Federation


Типичный Бенайтед: шторм и скука.
Go to the top of the page
  Insert nick Quick quote
+Quote Post
post Nov 13 2018, 21:05:53
Post #8

Schuldinerist
**************
Group: Металариец
Posts: 9,933
Releases: 33
From:
On Forums: 11 years 8 months
Thanks: 6110 time(s)
Russian Federation


ну это чисто фанатский релиз, для тех, кто хавает всё, что группа выпускает...
мне эта ЕР малоинтересна, хотя ничего плохого не скажу, музыка на хорошем уровне , да и вообще коллектив зачетный
б/о
Go to the top of the page
  Insert nick Quick quote
+Quote Post

Reply to this topicStart new topic
1 User(s) are reading this topic (1 Guests and 0 Anonymous Users)
0 Members:

 



- Lo-Fi Version Support form
Copyrights and abuse reports form
Time is now: 11th December 2018 - 01:32:39