Welcome Guest ( Log In | Register )

> Burn Down Eden - Liberticidal (2018), Melodic Death Metal
post Oct 11 2018, 13:46:26
Post #1

Правь статус, ####!111
**************
Group: Металариец
Posts: 15,305
Releases: 10451
From: Г.Харьков
On Forums: 6 years 7 months
Thanks: 173288 time(s)
Unknown


(IMG:http://metalarea.org/images/audiocovers/2018_Oct/acov_tid311620_thumb.jpg)

*Artist: Burn Down Eden
*Album: Liberticidal
*Year: 2018
*Genre: Melodic Death Metal
*Country: Germany (IMG:http://metalarea.org/forum/style_images/flags/Germany.png)
*Format: mp3@CBR320kbps
*Size: 85MB

Tracklist:
1. Dystopic Endzeit Panorama 03:59
2. Eternal Youth 02:50
3. Grotesque Satisfaction 03:38
4. Of Fortess, Deceit & Dissolution 04:14
5. Melodies of Memento 03:09
6. Succubus 03:30
7. A Tale of Deviant Hypocrisies 03:38
8. Daemmerung 02:27
9. Misled Psychogenesis 03:03
10. The Carnage Caused by Megalomaniac Gods 04:44
******************************
Total playing time: 35:12



Extended info
Robat Nowak Drums (2014-present)
William Deacon-Säck Guitars (2014-present)
Tom Noack Guitars (2014-present)
Marco Schütze Bass (2017-present)
Pether Hantsche Vocals (2017-present)
See also: Kalmah (live), ex-Altvater, ex-The Last Hangmen, ex-Nordheim


Technical info
(IMG:http://metalarea.org/images/spectrogram/2018_Oct/a37b4a2cb931107605af90474786fd88.png)
Input File: 04. Of Fortress, Deceit & Dissolution.mp3
Channels : 2
Sample Rate : 44100
Precision : 16-bit
Duration : 00:04:14.32 = 11215688 samples = 19074.3 CDDA sectors
File Size : 10.3M
Bit Rate : 324k
Sample Encoding: MPEG audio (layer I, II or III)
Comments :
Title=Of Fortress, Deceit & Dissolution
Artist=Burn Down Eden
Album=Liberticidal
Tracknumber=4
Year=2018
Discnumber=1



Register


Go to the top of the page
  Insert nick Quick quote
+Quote Post
 
Start new topic
Replies (1 - 5)
post Oct 11 2018, 18:14:13
Post #2

Правь статус, ####!111
**************
Group: Металариец
Posts: 15,305
Releases: 10451
From: Г.Харьков
On Forums: 6 years 7 months
Thanks: 173288 time(s)
Unknown


Cloud Mail 320
Register


Thanks:
Go to the top of the page
  Insert nick Quick quote
+Quote Post
post Oct 11 2018, 19:13:43
Post #3

MDM-Thrash Metal
**************
Group: Металариец
Posts: 7,297
Releases: 423
From: Одесса
On Forums: 11 years 4 months
Thanks: 13872 time(s)
Ukraine


По превью очень даже неплохо: сыграно мощно и напористно-агресивно, а самое главное, что без соплей, чистоголосья, грува, кора, модерна и прочего ненужничества!


Thanks:
Go to the top of the page
  Insert nick Quick quote
+Quote Post
post Oct 12 2018, 00:18:05
Post #4

ухо-горло-нос
*******
Group: Металариец
Posts: 789
Releases: 0
From: Севастополь
On Forums: 8 years 3 months
Thanks: 354 time(s)
Russian Federation


ЦИТАТА(Andrew @ Oct 11 2018, 21:13:43) *
По превью очень даже неплохо: сыграно мощно и напористно-агресивно, а самое главное, что без соплей, чистоголосья, грува, кора, модерна и прочего ненужничества!

(IMG:style_emoticons/default/smile1.gif) В слове "ненужничества" прочитал слово "мужеложества", понял что прочитал иксню и перечитал заново. Но прочитав заново понял что, ни иксаааа, со словом ошибся, а со смыслом то не ошибся ни икса (IMG:style_emoticons/default/smile1.gif)
Go to the top of the page
  Insert nick Quick quote
+Quote Post
post Oct 12 2018, 10:41:34
Post #5

Ищущий
****
Group: Металариец
Posts: 396
Releases: 0
From: Украина
On Forums: 10 years 5 months
Thanks: 13 time(s)
Ukraine


заценим

Да, по привью не плохо
Go to the top of the page
  Insert nick Quick quote
+Quote Post
post Oct 14 2018, 09:48:10
Post #6

Ъ
**************
Group: Металариец
Posts: 9,273
Releases: 9
On Forums: 9 years 11 months
Thanks: 1777 time(s)
Sweden


Третьесорт, на раз послушать пойдет.
Go to the top of the page
  Insert nick Quick quote
+Quote Post

Reply to this topicStart new topic
1 User(s) are reading this topic (1 Guests and 0 Anonymous Users)
0 Members:

 



- Lo-Fi Version Support form
Copyrights and abuse reports form
Time is now: 12th December 2018 - 07:17:26