Welcome Guest ( Log In | Register )

> Outer Heaven - Realms Of Eternal Decay (2018), Old School Death Metal
post Oct 11 2018, 13:52:38
Post #1

Правь статус, ####!111
**************
Group: Металариец
Posts: 15,305
Releases: 10451
From: Г.Харьков
On Forums: 6 years 7 months
Thanks: 173288 time(s)
Unknown


(IMG:http://metalarea.org/images/audiocovers/2018_Oct/acov_tid311621_thumb.jpg)

*Artist: Outer Heaven
*Album: Realms Of Eternal Decay
*Year: 2018
*Genre: Old School Death Metal
*Country: United States (IMG:http://metalarea.org/forum/style_images/flags/United%20States.png)
*Format: mp3@CBR320kbps
*Size: 72MB

Tracklist:
1. Vortex of Thought 03:51
2. What Lies Beneath 02:05
3. Pulsating Swarm 03:49
4. Multicellular Savagery 03:36
5. Echoes from Beyond 02:53
6. Tortured Winds 02:04
7. Bloodspire 04:15
8. Sacrificial Evolution 03:35
9. Putrid Dwelling 02:29
10. Decaying Realms 04:37
******************************
Total playing time: 33:14




Extended info
Paul Chrismer Drums
Jon Kunz Guitars
Austin Haines Vocals
Zak Carter Bass, Guitars
Raymond Figueroa Bass



Technical info
(IMG:http://metalarea.org/images/spectrogram/2018_Oct/438cfa5bb58bcb5b9a5beb4cc6934295.png)
Input File: 03. Pulsating Swarm.mp3
Channels : 2
Sample Rate : 44100
Precision : 16-bit
Duration : 00:03:49.37 = 10115217 samples = 17202.8 CDDA sectors
File Size : 9.34M
Bit Rate : 326k
Sample Encoding: MPEG audio (layer I, II or III)
Comments :
Title=Pulsating Swarm
Artist=Outer Heaven
Album=Realms of Eternal Decay
Tracknumber=3
Year=2018
Discnumber=1



Register


Go to the top of the page
  Insert nick Quick quote
+Quote Post
 
Start new topic
Replies (1 - 4)
post Oct 11 2018, 18:18:24
Post #2

Правь статус, ####!111
**************
Group: Металариец
Posts: 15,305
Releases: 10451
From: Г.Харьков
On Forums: 6 years 7 months
Thanks: 173288 time(s)
Unknown


Cloud Mail 320
Register


Go to the top of the page
  Insert nick Quick quote
+Quote Post
post Oct 11 2018, 22:10:34
Post #3

Crush The Enemies
**************
Group: Металариец
Posts: 4,158
Releases: 0
From: Moscow
On Forums: 9 years 3 months
Thanks: 2246 time(s)
Russian Federation



Утробно-булькающий с отличной ИНФЕРНАЛЬНОЙ атмосферой олдскульный DEATH,ведущий слушателя в неизведанную бездну потустороннего! (IMG:style_emoticons/default/metaler.gif) (IMG:style_emoticons/default/metaler.gif) (IMG:style_emoticons/default/metaler.gif)


Go to the top of the page
  Insert nick Quick quote
+Quote Post
post Oct 12 2018, 16:47:55
Post #4

Мегаманьяк
***********
Group: Металариец
Posts: 1,738
Releases: 0
From: Dnipro
On Forums: 10 years 4 months
Thanks: 459 time(s)
Ukraine


Годнота (IMG:style_emoticons/default/20.gif) Релапс редко говно выпускает.
Go to the top of the page
  Insert nick Quick quote
+Quote Post
post Oct 23 2018, 05:03:25
Post #5

Crush! Kill! Destroy!
**************
Group: Металариец
Posts: 4,737
Releases: 15
From: Kaliningrad
On Forums: 11 years 3 weeks
Thanks: 4368 time(s)
Russian Federation


великолепно!!!
Go to the top of the page
  Insert nick Quick quote
+Quote Post

Reply to this topicStart new topic
1 User(s) are reading this topic (1 Guests and 0 Anonymous Users)
0 Members:

 



- Lo-Fi Version Support form
Copyrights and abuse reports form
Time is now: 12th December 2018 - 06:17:52