Welcome Guest ( Log In | Register )

> Pa Vesh En - Church Of Bones (2018), Raw Black Metal (D5)
post Oct 11 2018, 13:59:04
Post #1

Detective Godzilla
Group Icon
Group: Moderation team
Posts: 2,692
Releases: 195
On Forums: 7 years 10 months
Thanks: 6058 time(s)
Russian Federation


(IMG:https://metalarea.org/images/audiocovers/2018_Oct/acov_tid311622_thumb.jpg)

*Artist: Pa Vesh En
*Album: Church Of Bones
*Year: 2018
*Genre: Raw Black Metal
*Country: Belarus (IMG:https://metalarea.org/forum/style_images/flags/Belarus.png)
*Format: mp3@CBR320kbps
*Size: 90MB

Tracklist:
1. The Wilderness of Cursed Souls 07:06
2. A Funeral Procession 05:03
3. La Valse Macabra 04:16
4. Pale Body Desecration 05:33
5. The Venom Seed 04:01
6. My Obscure Obsession 08:08
7. With Pain He Waits in Vain 02:52
******************************
Total playing time: 36:59



Extended info
Promo stuff

IRON BONEHEAD PRODUCTIONS is proud to present PA VESH EN's highly anticipated debut album, Church of Bones, on CD and vinyl LP formats.

2018 has already been an extremely busy year for PA VESH EN. In the span of six months, this singular 'n' shadowy entity from Belarus released through IRON BONEHEAD the Dead Womb demo, the two-song A Ghost 7", and a split album with TEMPLE MOON. Each step of the way, PA VESH EN has exhibited a stark 'n' unsettling style of black metal. From stifled-violence miserablism to seemingly formless drift, from bent-askew melodicism to echo-chamber murk, always with a tortured soul guiding everything, he's almost effortlessly created a soundworld beyond compare - and has done so with the restlessness of a lost specter.

Now arrives Church of Bones, proving with no small amount of finality that PA VESH EN is creating some of the most mysterious and vital black metal of modern times. At seven songs spanning 37 minutes, Church of Bones feels far more vast than its otherwise-compact runtime suggests. If the preceding split with TEMPLE MOON marked a momentous shift toward total and utter desolation, then PA VESH EN dives deepest - and equally, both in manner and quality - into both the fog and the murk here, further developing that malodorous melodicism that likewise crept forth on the split. Returning to misery and comfort (and the comfort of misery), the long 'n' languorous landscapes laid out across Church of Bones beckon the listener in a most seductive manner, all before those cursed tendrils ensnare the subconscious and suck it dry, any last semblance of hope extinguished. This celestial drift-unto-descent feels somewhat familiar in the grand scheme of black metal which uses rawness as a weapon, and yet there's that elusive X-factor (or, literally, just literal elusiveness) that makes PA VESH EN sound completely and utterly ALIEN.

Either way, PA VESH EN has triumphed with the masterful Church of Bones, truly finding his voice and singing the most damned songs. Will you enter that church and join in the choir?


Technical info
(IMG:https://metalarea.org/images/spectrogram/2018_Oct/fb82d38b1a8b456106e05b6a4f758ac3.png)
Input File: 04 Pale Body Desecration.mp3
Channels : 2
Sample Rate : 44100
Precision : 16-bit
Duration : 00:05:32.66 = 14670350 samples = 24949.6 CDDA sectors
File Size : 14.2M
Bit Rate : 341k
Sample Encoding: MPEG audio (layer I, II or III)
Comments :
Title=Pale Body Desecration
Artist=Pa Vesh En
Album=Church of Bones
Tracknumber=4



Register


Go to the top of the page
  Insert nick Quick quote
+Quote Post
 
Start new topic
Replies (1 - 5)
post Oct 12 2018, 19:37:52
Post #2

Group: Подсевший
Posts: 24
Releases: 0
From: The Road...
On Forums: 11 years 3 months
Thanks: 4 time(s)
Canada


New link? Thanks in advance!
Go to the top of the page
  Insert nick Quick quote
+Quote Post
post Oct 12 2018, 21:06:52
Post #3

Два Литра
**
Group: Завсегдатай
Posts: 152
Releases: 0
On Forums: 9 years 10 months
Thanks: 122 time(s)
Ukraine


ЦИТАТА(oden44 @ Oct 12 2018, 21:37:52) *
New link? Thanks in advance!


Register


Go to the top of the page
  Insert nick Quick quote
+Quote Post
post Oct 13 2018, 01:24:03
Post #4

Group: Подсевший
Posts: 24
Releases: 0
From: The Road...
On Forums: 11 years 3 months
Thanks: 4 time(s)
Canada


Thanks!
Go to the top of the page
  Insert nick Quick quote
+Quote Post
post Oct 15 2018, 16:04:44
Post #5

Четыре Литра
****
Group: Металариец
Posts: 330
Releases: 0
On Forums: 1 year 1 month
Thanks: 127 time(s)
Unknown


Вот и дошел я до прослушивания полноформатной работы от этого белоруса. 2 демки были на уровне а виниловая семерка так вообще хороша. Здесь логическое продолжение всех его наработок собранных воедино. При прослушивании не покидает стойкое ощущение что автор очень сильно вдохновлялся Xasthur. Так же можно провести множество аналогий с косым десятком разных DSBM банд/проектов. Расписывать все достоинства которых у этого альбома не мало не вижу смысла. Если нравится Xasthur (учитывая в какое дерьмише скатился малефик на данный момент) то Pa Vesh En придется очень кстати.


Thanks:
(2) Daale, nemx,
Go to the top of the page
  Insert nick Quick quote
+Quote Post
post Dec 2 2018, 11:45:39
Post #6

Правь статус, ####!111
**************
Group: Металариец
Posts: 2,479
Releases: 12
On Forums: 11 years 4 months
Thanks: 1377 time(s)
Russian Federation


Да, давно такой правильной сырятинки не чекал. Просто превосходно.
Go to the top of the page
  Insert nick Quick quote
+Quote Post

Reply to this topicStart new topic
1 User(s) are reading this topic (1 Guests and 0 Anonymous Users)
0 Members:

 



- Lo-Fi Version Support form
Copyrights and abuse reports form
Time is now: 12th December 2018 - 07:31:58