Welcome Guest ( Log In | Register )

> Credic - Agora (2018), Melodic Death Metal
post Oct 11 2018, 14:01:20
Post #1

Аннигилятор пивА
Group Icon
Group: V.I.P
Posts: 52,356
Releases: 16556
From: Koenigsberg - TILZIT
On Forums: 12 years 11 months
Thanks: 360725 time(s)
Russian Federation


(IMG:https://metalarea.org/images/audiocovers/2018_Oct/acov_tid311623_thumb.jpg)

*Artist: Credic
*Album: Agora
*Year: 2018
*Genre: Melodic Death Metal
*Country: Germany (IMG:https://metalarea.org/forum/style_images/flags/Germany.png)
*Format: mp3@CBR320kbps
*Size: 128MB

Tracklist:
01. Revelation
02. The Masquerade
03. Alternate Ending
04. Mind Over Matter
05. The Eye of the Storm
06. The Margins of Your Faith
07. Highspeed Claustrophobia
08. Bring Out Your Dead
09. Outbreak of the Unknown
******************************
Total playing time: 51:58



Extended info
Waldemar - Drums
Andreas - Guitars
Oliver - Guitars
Martin - Bass (2014-present)
Stefan - Vocals (lead) (2014-present)


Technical info
(IMG:https://metalarea.org/images/spectrogram/2018_Oct/6179660fdc867957d7cbb790b9fd5bbc.png)
Input File: 03. Alternate Ending.mp3
Channels : 2
Sample Rate : 44100
Precision : 16-bit
Duration : 00:04:47.58 = 12682058 samples = 21568.1 CDDA sectors
File Size : 12.5M
Bit Rate : 348k
Sample Encoding: MPEG audio (layer I, II or III)
Comments :
Title=Alternate Ending
Artist=Credic
Album=Agora
Tracknumber=3/9
Year=2018
Genre=MDM
Discnumber=1/1



Register

Register


Go to the top of the page
  Insert nick Quick quote
+Quote Post
 
Start new topic
Replies (1 - 3)
post Oct 11 2018, 19:16:51
Post #2

Аннигилятор пивА
Group Icon
Group: V.I.P
Posts: 52,356
Releases: 16556
From: Koenigsberg - TILZIT
On Forums: 12 years 11 months
Thanks: 360725 time(s)
Russian Federation



MIRROR
Register

Register



Go to the top of the page
  Insert nick Quick quote
+Quote Post
post Oct 12 2018, 16:44:34
Post #3

Правь статус, ####!111
**************
Group: Металариец
Posts: 2,378
Releases: 2
From: Dnipro
On Forums: 10 years 10 months
Thanks: 622 time(s)
Ukraine


Послушал 3-4 песни, но что то не поперло, не оно.
Go to the top of the page
  Insert nick Quick quote
+Quote Post
post Oct 13 2018, 15:51:45
Post #4

Ъ
**************
Group: Металариец
Posts: 9,515
Releases: 9
On Forums: 10 years 4 months
Thanks: 1847 time(s)
Sweden


Третьесорт.
Go to the top of the page
  Insert nick Quick quote
+Quote Post

Reply to this topicStart new topic
1 User(s) are reading this topic (1 Guests and 0 Anonymous Users)
0 Members:

 



- Lo-Fi Version Support form
Copyrights and abuse reports form
Time is now: 23rd May 2019 - 16:22:44