Welcome Guest ( Log In | Register )

> Mycelia - Apex (2018), Progressive/Technical Deathcore (D6)
post Oct 11 2018, 14:02:06
Post #1

Аннигилятор пивА
Group Icon
Group: V.I.P
Posts: 50,768
Releases: 15821
From: Koenigsberg - TILZIT
On Forums: 12 years 6 months
Thanks: 345051 time(s)
Russian Federation


(IMG:https://metalarea.org/images/audiocovers/2018_Oct/acov_tid311625_thumb.jpg)

*Artist: Mycelia
*Album: Apex
*Year: 2018
*Genre: Progressive/Technical Deathcore
*Country: Switzerland (IMG:https://metalarea.org/forum/style_images/flags/Switzerland.png)
*Format: mp3@CBR320kbps
*Size: 112MB

Tracklist:
01. Eight Milligrams
02. Nefarious Seeds
03. Lawnmower Man
04. Once Upon a Lie
05. East of Eden
06. Monolith
07. Holler
08. The Hateful Half-Dozen
09. Slip-Along Jack Mctravis
10. Flak
11. E.V.A.
12. Cromulon
13. Timesick
******************************
Total playing time: 48:53



Extended info
Mike Schmid - Guitar,
Mike Fuller - Guitar,
Marc Trummer - Drums,
Marc Fürer - Vocals,
Lukas Villiger - Vocals,
Eugen Wiebe - Bass



Technical info
(IMG:https://metalarea.org/images/spectrogram/2018_Oct/d48d3d5aee2fdb2517bc765f53d4104e.png)
Input File: 02. Nefarious Seeds.mp3
Channels : 2
Sample Rate : 44100
Precision : 16-bit
Duration : 00:03:52.08 = 10234904 samples = 17406.3 CDDA sectors
File Size : 9.28M
Bit Rate : 320k
Sample Encoding: MPEG audio (layer I, II or III)
Comments :
Title=Nefarious Seeds
Artist=Mycelia
Album=Apex
Tracknumber=02/13
Year=2018
Discnumber=1/1



Register


Go to the top of the page
  Insert nick Quick quote
+Quote Post
 
Start new topic
Replies (1 - 1)
post Oct 11 2018, 19:30:42
Post #2

Аннигилятор пивА
Group Icon
Group: V.I.P
Posts: 50,768
Releases: 15821
From: Koenigsberg - TILZIT
On Forums: 12 years 6 months
Thanks: 345051 time(s)
Russian Federation


mirror
Register
Go to the top of the page
  Insert nick Quick quote
+Quote Post

Reply to this topicStart new topic
1 User(s) are reading this topic (1 Guests and 0 Anonymous Users)
0 Members:

 



- Lo-Fi Version Support form
Copyrights and abuse reports form
Time is now: 12th December 2018 - 06:45:23