Welcome Guest ( Log In | Register )

> Releases Upload / Добавление релизов

Добавить релиз тут / Click here to add release
Рекомендованные обменники / Recommended file shares

> Drift Into Black - Dead Suns Under The Forever Moon (2018), Atmospheric Doom Metal
post Oct 11 2018, 14:19:52
Post #1
BAN
Banned till
Oct 20 2018, 09:33:06



(IMG:http://metalarea.org/images/audiocovers/2018_Oct/acov_tid311627_thumb.jpg)

*Artist: Drift Into Black
*Album: Dead Suns Under The Forever Moon
*Year: 2018
*Genre: Atmospheric Doom Metal
*Country: United States (IMG:http://metalarea.org/forum/style_images/flags/United%20States.png)
*Format: mp3@CBR320kbps
*Size: 86MB

Tracklist:
01. Reign
02. Sifting Through the Dead
03. Left in the Ash
04. Hollow
05. Gone But Not Forgotten
06. Death from Above
07. No Return to Light
08. Home
******************************
Total playing time: 40:55



Extended info
Craig Rossi - Vocals, guitars, keyboards

Guest Musicians:

Paul LaPlaca - Bass
Klemen Markelj - Drums
Rick Habeeb - Additional guitars
Melissa Hancock - Additional vocals
Elizabeth Weaver - Cello


Technical info
(IMG:http://metalarea.org/images/spectrogram/2018_Oct/571a9025dda806c38be061be6644b615.png)
Input File: 03. Left in the Ash.mp3
Channels : 2
Sample Rate : 44100
Precision : 16-bit
Duration : 00:06:03.10 = 16012666 samples = 27232.4 CDDA sectors
File Size : 14.6M
Bit Rate : 321k
Sample Encoding: MPEG audio (layer I, II or III)
Comments :
Title=Left in the Ash
Artist=Drift into Black
Album=Dead Suns Under the Forever Moon
Tracknumber=3
Year=2018
Discnumber=1



Register


Go to the top of the page
  Insert nick Quick quote
+Quote Post
 
Start new topic
Replies (1 - 2)
post Oct 11 2018, 18:25:21
Post #2
BAN
Banned till
Oct 20 2018, 09:33:06



Cloud Mail 320
Register


Go to the top of the page
  Insert nick Quick quote
+Quote Post
post Oct 11 2018, 18:48:04
Post #3

Group: Подсевший
Posts: 27
Releases: 0
From: Масквич
On Forums: 10 years 4 months
Thanks: 1 time(s)
Russian Federation


допустим тавобщемто атлична на

Go to the top of the page
  Insert nick Quick quote
+Quote Post

Reply to this topicStart new topic
1 User(s) are reading this topic (1 Guests and 0 Anonymous Users)
0 Members:

 



- Lo-Fi Version Support form
Copyrights and abuse reports form
Time is now: 16th October 2018 - 20:18:50