Welcome Guest ( Log In | Register )

> Releases Upload / Добавление релизов

Добавить релиз тут / Click here to add release
Рекомендованные обменники / Recommended file shares

> Obšar - R​.​U​.​N​.​E. (2018), Atmospheric/Melodic Black Metal
post Oct 11 2018, 14:29:49
Post #1

Аннигилятор пивА
Group Icon
Group: V.I.P
Posts: 49,361
Releases: 15223
From: Koenigsberg - TILZIT
On Forums: 12 years 4 months
Thanks: 332393 time(s)
Russian Federation


(IMG:https://metalarea.org/images/audiocovers/2018_Oct/acov_tid311630_thumb.jpg)

*Artist: Obšar
*Album: R​.​U​.​N​.​E.
*Year: 2018
*Genre: Atmospheric/Melodic Black Metal
*Country: Slovakia (IMG:https://metalarea.org/forum/style_images/flags/Slovakia.png)
*Format: mp3@CBR320kbps
*Size: 73MB

Tracklist:
01. Obšar
02. Dračiny
03. Rydošova
04. Matragona
05. Čorniny
06. Rypy
07. Kamjanaja Luka
08. Za Semero Horami
******************************
Total playing time: 30:15




Technical info
(IMG:https://metalarea.org/images/spectrogram/2018_Oct/803fd0fcf91392f51291c249267a9ce6.png)
Input File: 02 Dračiny.mp3
Channels : 2
Sample Rate : 44100
Precision : 16-bit
Duration : 00:03:55.28 = 10375628 samples = 17645.6 CDDA sectors
File Size : 9.63M
Bit Rate : 327k
Sample Encoding: MPEG audio (layer I, II or III)
Comments :
Title=Dračiny
Artist=Obšar
Album=R.U.N.E.
Tracknumber=2
Year=2018



Register


Go to the top of the page
  Insert nick Quick quote
+Quote Post
 
Start new topic
Replies (1 - 1)
post Oct 11 2018, 19:17:28
Post #2

Аннигилятор пивА
Group Icon
Group: V.I.P
Posts: 49,361
Releases: 15223
From: Koenigsberg - TILZIT
On Forums: 12 years 4 months
Thanks: 332393 time(s)
Russian Federation


MIRROR
Register

Register




Go to the top of the page
  Insert nick Quick quote
+Quote Post

Reply to this topicStart new topic
1 User(s) are reading this topic (1 Guests and 0 Anonymous Users)
0 Members:

 



- Lo-Fi Version Support form
Copyrights and abuse reports form
Time is now: 15th October 2018 - 11:13:16