Welcome Guest ( Log In | Register )

> Helsótt - Slaves And Gods (2018), Folk/Pagan/Death Metal
post Oct 11 2018, 14:37:23
Post #1

Аннигилятор пивА
Group Icon
Group: V.I.P
Posts: 50,766
Releases: 15821
From: Koenigsberg - TILZIT
On Forums: 12 years 6 months
Thanks: 345050 time(s)
Russian Federation


(IMG:https://metalarea.org/images/audiocovers/2018_Oct/acov_tid311631_thumb.jpg)

*Artist: Helsótt
*Album: Slaves And Gods
*Year: 2018
*Genre: Folk/Pagan/Death Metal
*Country: United States (IMG:https://metalarea.org/forum/style_images/flags/United%20States.png)
*Format: mp3@CBR320kbps
*Size: 103MB

Tracklist:
01. Slaves and Gods
02. The Coward's Curse
03. Winter Smells like Death
04. Whiskey Breath
05. Eye of the Past
06. Trollskald
07. Zep Tepi
08. Return Hyperborea
09. Honour Thy Valkyrie
10. Runnin' Down a Dream
******************************
Total playing time: 46:49



Extended info
The Pagan Metal Warriors return, but this time around, they've brought a few friends along for the ride! Guests on the new album include Masha Scream (Arkona), Lazar (Arkona), Dr. Leif Kjonnsfleis (TrollfesT), Trollmannen (TrollfesT), Damna (Elvenking), Lethien (Elvenking), Dom Crey (Equilibrium) and Kevin Storm.

Mixed and mastered by J-F Dagenais (Kataklysm, Misery Index, Despised Icon). Cover art by Felipe Machado Franco (Iced Earth, Blind Guardian, Rhapsody of Fire).



Technical info
(IMG:https://metalarea.org/images/spectrogram/2018_Oct/f26e01f487a9ef0b3e9757dd692099d6.png)
Input File: 02. The Coward's Curse (feat. Kevin Storm & Bjorn Friedrichsen).mp3
Channels : 2
Sample Rate : 44100
Precision : 16-bit
Duration : 00:03:45.30 = 9935510 samples = 16897.1 CDDA sectors
File Size : 9.09M
Bit Rate : 323k
Sample Encoding: MPEG audio (layer I, II or III)
Comments :
Title=The Coward's Curse (feat. Kevin Storm & Bjorn Friedrichsen)
Artist=Helsott
Album=Slaves and Gods
Tracknumber=2
Year=2018
Discnumber=1



Register


Go to the top of the page
  Insert nick Quick quote
+Quote Post
 
Start new topic
Replies (1 - 3)
post Oct 11 2018, 19:18:31
Post #2

Аннигилятор пивА
Group Icon
Group: V.I.P
Posts: 50,766
Releases: 15821
From: Koenigsberg - TILZIT
On Forums: 12 years 6 months
Thanks: 345050 time(s)
Russian Federation


mirror
Register

Register

Register




Go to the top of the page
  Insert nick Quick quote
+Quote Post
post Oct 12 2018, 16:42:26
Post #3

Мегаманьяк
***********
Group: Металариец
Posts: 1,738
Releases: 0
From: Dnipro
On Forums: 10 years 4 months
Thanks: 459 time(s)
Ukraine


Понравился альбомчик, чем то датский Svartsot напомнили (IMG:style_emoticons/default/20.gif)
Сгреб себе лося (IMG:style_emoticons/default/5.gif)
Go to the top of the page
  Insert nick Quick quote
+Quote Post
post Oct 14 2018, 09:01:49
Post #4

Маньяк
**********
Group: Металариец
Posts: 1,143
Releases: 1
From: Беларусь
On Forums: 10 years 11 months
Thanks: 439 time(s)
Russian Federation


У пацанов всё в кучу смешалось - викинги, пирамиды, гиперборея )))
Go to the top of the page
  Insert nick Quick quote
+Quote Post

Reply to this topicStart new topic
1 User(s) are reading this topic (1 Guests and 0 Anonymous Users)
0 Members:

 



- Lo-Fi Version Support form
Copyrights and abuse reports form
Time is now: 12th December 2018 - 06:41:42