Welcome Guest ( Log In | Register )

> Releases Upload / Добавление релизов

Добавить релиз тут / Click here to add release
Рекомендованные обменники / Recommended file shares

> Northern Crown - Northern Crown (2018), Epic Doom Metal
post Oct 11 2018, 14:40:54
Post #1

Аннигилятор пивА
Group Icon
Group: V.I.P
Posts: 49,361
Releases: 15223
From: Koenigsberg - TILZIT
On Forums: 12 years 4 months
Thanks: 332393 time(s)
Russian Federation


(IMG:https://metalarea.org/images/audiocovers/2018_Oct/acov_tid311632_thumb.jpg)

*Artist: Northern Crown
*Album: Northern Crown
*Year: 2018
*Genre: Epic Doom Metal
*Country: United States (IMG:https://metalarea.org/forum/style_images/flags/United%20States.png)
*Format: mp3@CBR320kbps
*Size: 134MB

Tracklist:
1. I Am Your Slave 07:34
2. Merciless, They Let You Suffer 04:27
3. Forged from Nothing 07:48
4. Chasing the Sun 05:52
5. The Desert and The Wind 10:15
6. Righteous & Pure 05:45
7. By Demons Bidden 07:11
8. Your River 09:40
******************************
Total playing time: 58:32

Preview 1


Extended info
Leona - Bass (Weaponlord, Infernal Realm, ex-Faethom, ex-Impurity, ex-Antitheist)
Zachary Randall - Guitars, Bass, Keyboards, (2013-present) See also: ex-Antitheist
Frank Serafine - Vocals, Guitars (2013-present) See also: Frank Serafine, ex-Ex Nihilo, ex-Dark Hound
Josh Brown - Drums (2014-present) See also: Dark Hound


Technical info
(IMG:https://metalarea.org/images/spectrogram/2018_Oct/ad3b56108a32b4342bffaf5d1285fbea.png)
Input File: 02. Merciless, They Let You Suffer.mp3
Channels : 2
Sample Rate : 44100
Precision : 16-bit
Duration : 00:04:27.17 = 11782285 samples = 20037.9 CDDA sectors
File Size : 10.7M
Bit Rate : 321k
Sample Encoding: MPEG audio (layer I, II or III)
Comments :
Title=Merciless, They Let You Suffer
Artist=Northern Crown
Album=Northern Crown
Tracknumber=2
Year=2018
Discnumber=1



Register


Thanks:
Go to the top of the page
  Insert nick Quick quote
+Quote Post
 
Start new topic
Replies (1 - 3)
post Oct 11 2018, 19:16:22
Post #2

Аннигилятор пивА
Group Icon
Group: V.I.P
Posts: 49,361
Releases: 15223
From: Koenigsberg - TILZIT
On Forums: 12 years 4 months
Thanks: 332393 time(s)
Russian Federation


mirror
Register

Register


Thanks:
Go to the top of the page
  Insert nick Quick quote
+Quote Post
post Oct 12 2018, 10:22:20
Post #3

Пять Литров
*****
Group: Металариец
Posts: 412
Releases: 5
From: Ивантеевка, Московская область
On Forums: 10 years 9 months
Thanks: 128 time(s)
Russian Federation


Недурственно, но на 1 раз.
Go to the top of the page
  Insert nick Quick quote
+Quote Post
post Oct 12 2018, 16:36:58
Post #4

Маньяк
**********
Group: Металариец
Posts: 1,430
Releases: 0
From: Dnipro
On Forums: 10 years 3 months
Thanks: 387 time(s)
Ukraine


https://music.northerncrownband.com/
Go to the top of the page
  Insert nick Quick quote
+Quote Post

Reply to this topicStart new topic
1 User(s) are reading this topic (1 Guests and 0 Anonymous Users)
0 Members:

 



- Lo-Fi Version Support form
Copyrights and abuse reports form
Time is now: 15th October 2018 - 11:13:53