Welcome Guest ( Log In | Register )

> Releases Upload / Добавление релизов

Добавить релиз тут / Click here to add release
Рекомендованные обменники / Recommended file shares

 
Reply to this topicStart new topic
> Endtime Odyssey - City In Decay (2018), Progressive Metal
post Oct 11 2018, 15:02:05
Post #1

Аннигилятор пивА
Group Icon
Group: V.I.P
Posts: 49,362
Releases: 15223
From: Koenigsberg - TILZIT
On Forums: 12 years 4 months
Thanks: 332397 time(s)
Russian Federation


(IMG:https://metalarea.org/images/audiocovers/2018_Oct/acov_tid311633_thumb.jpg)

*Artist: Endtime Odyssey
*Album: City In Decay
*Year: 2018
*Genre: Progressive Metal
*Country: Belgium (IMG:https://metalarea.org/forum/style_images/flags/Belgium.png)
*Format: mp3@CBR320kbps
*Size: 106MB

Tracklist:
1. Burned Up 05:02
2. Sinners' Paradigm 06:19
3. City in Decay 06:13
4. Metal on Skin 11:48
5. Essence of Time 04:36
6. A Life of Pretence 06:40
7. Stargazer 08:36
******************************
Total playing time: 49:14




Extended info
Joeri Herregat - Bass (2012-present) See also: ex-Corpus
Steve Vanderperren - Drums (2012-present) See also: ex-Corpus, ex-Herfst, CroW SysteM, ex-Fabulae Dramatis, ex-Io, ex-Saille
Tim Verheyden - Guitars (2012-present)
Lionel Meessen - Vocals (2012-present) See also: ex-Corpus, ex-Io
Veronika Martinova - Keyboards (2018-present)


Technical info
(IMG:https://metalarea.org/images/spectrogram/2018_Oct/74298f26b0d043874c83aa588ba87549.png)
Input File: 02. Sinners\' Paradigm.mp3
Channels : 2
Sample Rate : 44100
Precision : 16-bit
Duration : 00:06:19.06 = 16716546 samples = 28429.5 CDDA sectors
File Size : 15.2M
Bit Rate : 321k
Sample Encoding: MPEG audio (layer I, II or III)
Comments :
Title=Sinners' Paradigm
Artist=Endtime Odyssey
Album=City in Decay
Tracknumber=2
Year=2018
Discnumber=1



Register


Thanks:
Go to the top of the page
  Insert nick Quick quote
+Quote Post

Reply to this topicStart new topic
1 User(s) are reading this topic (1 Guests and 0 Anonymous Users)
0 Members:

 



- Lo-Fi Version Support form
Copyrights and abuse reports form
Time is now: 15th October 2018 - 12:15:59