Welcome Guest ( Log In | Register )

> Deadbird - III: The Forest Within The Tree (2018), Sludge/Doom Metal
post Oct 11 2018, 15:02:32
Post #1

Правь статус, ####!111
**************
Group: Металариец
Posts: 15,305
Releases: 10451
From: Г.Харьков
On Forums: 6 years 7 months
Thanks: 173286 time(s)
Unknown


(IMG:http://metalarea.org/images/audiocovers/2018_Oct/acov_tid311634_thumb.jpg)

*Artist: Deadbird
*Album: III: The Forest Within The Tree
*Year: 2018
*Genre: Sludge/Doom Metal
*Country: United States (IMG:http://metalarea.org/forum/style_images/flags/United%20States.png)
*Format: mp3@CBR320kbps
*Size: 90MB

Tracklist:
1. The Singularity 02:16
2. Luciferous Heart 07:17
3. Heyday 07:58
4. Alexandria 03:05
5. 11- 34 03:22
6. Brought Low 06:49
7. Bone & Ash 05:23
8. Ending 02:14
******************************
Total playing time: 38:24


Preview 2

Extended info
Jeff Morgan Bass, Vocals
Chris Terry Synths, Samples, Vocals
Phillip Schaaf Drums
Chuck Schaaf Guitars, Vocals
Alan Short Guitars, Vocals
Reid Raley Bass, Vocals


Technical info
(IMG:http://metalarea.org/images/spectrogram/2018_Oct/645d7d6b3eb2c0dbf4d6835164b130b6.png)
Input File: 03. Heyday.mp3
Channels : 2
Sample Rate : 44100
Precision : 16-bit
Duration : 00:00:00.48 = 21036 samples = 35.7755 CDDA sectors
File Size : 19.1M
Bit Rate : 320M
Sample Encoding: MPEG audio (layer I, II or III)
Comments :
Title=Heyday
Artist=Deadbird
Album=III: The Forest Within the Tree
Tracknumber=03/08
Year=2018
Discnumber=1/1



Register


Go to the top of the page
  Insert nick Quick quote
+Quote Post
 
Start new topic
Replies (1 - 4)
post Oct 12 2018, 18:25:16    Сейчас играет: Godslave - To the Flame
Post #2

antithesis
**************
Group: Металариец
Posts: 2,448
Releases: 30
From: VRN
On Forums: 8 years 6 months
Thanks: 1329 time(s)
Russian Federation


mirror, pls
Go to the top of the page
  Insert nick Quick quote
+Quote Post
post Oct 12 2018, 19:40:46
Post #3

MélöManiäc
*****
Group: Металариец
Posts: 457
Releases: 36
From: КубанЬ
On Forums: 9 years 11 months
Thanks: 797 time(s)
Russian Federation


Здравый такой думяра! (IMG:style_emoticons/default/m0114.gif)
Go to the top of the page
  Insert nick Quick quote
+Quote Post
post Oct 12 2018, 20:13:07
Post #4

MélöManiäc
*****
Group: Металариец
Posts: 457
Releases: 36
From: КубанЬ
On Forums: 9 years 11 months
Thanks: 797 time(s)
Russian Federation


Да и заточки у парней весьма здравые. Были. В начале пути.
(IMG:http://metalarea.org/images/audiocovers/2018_Oct/acov_uid56025_d4a430a57ac53cf363e31615efed9bf1.jpg)


Thanks:
(1) artscald,
Go to the top of the page
  Insert nick Quick quote
+Quote Post
post Oct 12 2018, 20:19:36
Post #5

Маньяк
**********
Group: Металариец
Posts: 1,488
Releases: 54
On Forums: 7 years 9 months
Thanks: 1947 time(s)
Russian Federation


Альбом 2008 года был знатный.
Go to the top of the page
  Insert nick Quick quote
+Quote Post

Reply to this topicStart new topic
1 User(s) are reading this topic (1 Guests and 0 Anonymous Users)
0 Members:

 



- Lo-Fi Version Support form
Copyrights and abuse reports form
Time is now: 12th December 2018 - 05:57:05