Welcome Guest ( Log In | Register )

> Releases Upload / Добавление релизов

Добавить релиз тут / Click here to add release
Рекомендованные обменники / Recommended file shares

> Khandra - There Is No Division Outside Existence [ep] (2018), Black Metal
post Oct 11 2018, 15:26:57
Post #1

Аннигилятор пивА
Group Icon
Group: V.I.P
Posts: 49,361
Releases: 15223
From: Koenigsberg - TILZIT
On Forums: 12 years 4 months
Thanks: 332396 time(s)
Russian Federation


(IMG:https://metalarea.org/images/audiocovers/2018_Oct/acov_tid311637_thumb.jpg)

*Artist: Khandra
*Album: There Is No Division Outside Existence [ep]
*Year: 2018
*Genre: Black Metal
*Country: Belarus (IMG:https://metalarea.org/forum/style_images/flags/Belarus.png)
*Format: mp3@CBR320kbps
*Size: 55MB

Tracklist:
01. Into the Absolute Nothingness
02. Decaying into the Ascended
03. There Is No Division Outside Existence
04. Progressing in Desolation
******************************
Total playing time: 25:45





Technical info
(IMG:https://metalarea.org/images/spectrogram/2018_Oct/4571e8d0016a84236166ea8f8ecf3b31.png)
Input File: 03. There Is No Division Outside Existence.mp3
Channels : 2
Sample Rate : 44100
Precision : 16-bit
Duration : 00:05:59.99 = 15875559 samples = 26999.2 CDDA sectors
File Size : 14.5M
Bit Rate : 322k
Sample Encoding: MPEG audio (layer I, II or III)
Comments :
Title=There Is No Division Outside Existence
Artist=Khandra
Album=There Is No Division Outside Existence
Tracknumber=3
Year=2018
Discnumber=1



Register


Go to the top of the page
  Insert nick Quick quote
+Quote Post
 
Start new topic
Replies (1 - 1)
post Oct 11 2018, 19:15:09
Post #2

Аннигилятор пивА
Group Icon
Group: V.I.P
Posts: 49,361
Releases: 15223
From: Koenigsberg - TILZIT
On Forums: 12 years 4 months
Thanks: 332396 time(s)
Russian Federation


MIRROR
Register


Go to the top of the page
  Insert nick Quick quote
+Quote Post

Reply to this topicStart new topic
2 User(s) are reading this topic (2 Guests and 0 Anonymous Users)
0 Members:

 



- Lo-Fi Version Support form
Copyrights and abuse reports form
Time is now: 15th October 2018 - 11:40:05