Welcome Guest ( Log In | Register )

> Norilsk - Weepers Of The Land [ep] (2018), Doom/Death/Post-Metal
post Oct 11 2018, 15:38:08
Post #1

Аннигилятор пивА
Group Icon
Group: V.I.P
Posts: 50,765
Releases: 15821
From: Koenigsberg - TILZIT
On Forums: 12 years 6 months
Thanks: 345050 time(s)
Russian Federation


(IMG:https://metalarea.org/images/audiocovers/2018_Oct/acov_tid311638_thumb.jpg)

*Artist: Norilsk
*Album: Weepers Of The Land [ep]
*Year: 2018
*Genre: Doom/Death/Post-Metal
*Country: Canada (IMG:https://metalarea.org/forum/style_images/flags/Canada.png)
*Format: mp3@CBR320kbps
*Size: 60MB

Tracklist:
01. No Sacred Ground
02. The Way
03. Toute La Noirceur Du Monde
04. Weepers of the Land
******************************
Total playing time: 27:13



Extended info
ic M - Vocals, Bass Guitars
Nick R - Drums

Tom Hansen - Guitars (Live)
Matt MacIvor - Guitars (Live)

All lyrics by Nic M except "Toute la noirceur du monde" by Ben Forte, and "Weepers of the Land" by Joshua Cayer and Nic M

Guitar solos on "Toute la noirceur du monde", "Tomber 7 fois", and "Weepers of the Land" by Mort Morion

Guest Vocals on "No Sacred Ground" by Damian Smith
Guest Vocals on "Weepers of the Land" by Joshua Cayer



Technical info
(IMG:https://metalarea.org/images/spectrogram/2018_Oct/7aade04001991de73f19e5e31e01ce24.png)
Input File: 02. The Way.mp3
Channels : 2
Sample Rate : 44100
Precision : 16-bit
Duration : 00:03:33.64 = 9421700 samples = 16023.3 CDDA sectors
File Size : 8.59M
Bit Rate : 322k
Sample Encoding: MPEG audio (layer I, II or III)
Comments :
Title=The Way
Artist=Norilsk
Album=Weepers of the Land
Tracknumber=2
Year=2018
Discnumber=1



Register


Go to the top of the page
  Insert nick Quick quote
+Quote Post
 
Start new topic
Replies (1 - 1)
post Oct 11 2018, 19:14:46
Post #2

Аннигилятор пивА
Group Icon
Group: V.I.P
Posts: 50,765
Releases: 15821
From: Koenigsberg - TILZIT
On Forums: 12 years 6 months
Thanks: 345050 time(s)
Russian Federation


MIRROR
Register




Thanks:
(2) marilin, snot,
Go to the top of the page
  Insert nick Quick quote
+Quote Post

Reply to this topicStart new topic
1 User(s) are reading this topic (1 Guests and 0 Anonymous Users)
0 Members:

 



- Lo-Fi Version Support form
Copyrights and abuse reports form
Time is now: 12th December 2018 - 06:23:00