Welcome Guest ( Log In | Register )

> Cursus Bellum - Ex Nihilo Nihil Fit (2018), Death Metal
post Oct 11 2018, 15:45:02
Post #1

Правь статус, ####!111
**************
Group: Металариец
Posts: 15,305
Releases: 10451
From: Г.Харьков
On Forums: 6 years 7 months
Thanks: 173286 time(s)
Unknown


(IMG:http://metalarea.org/images/audiocovers/2018_Oct/acov_tid311639_thumb.jpg)

*Artist: Cursus Bellum
*Album: Ex Nihilo Nihil Fit
*Year: 2018
*Genre: Death Metal
*Country: Sweden (IMG:http://metalarea.org/forum/style_images/flags/Sweden.png)
*Format: mp3@CBR320kbps
*Size: 117MB

Tracklist:
1. Soil Companion
2. Drawn to Infernal Depths
3. No Promise of God
4. Av jord är du kommen
5. Magma Prophet
6. The Vortex
7. Plague of Justinian 541-542 A.D.
8. Till jord skall du åter varda
9. Life Eater
10. In Their Rotten Flesh
11. The Soil Beneath Us
******************************
Total playing time: 46:31



Extended info
Jocke Drums, Vocals
See also: Sgt. Carnage, Totenwelt, ex-Immersed in Blood, ex-Supreme Majesty, ex-Blessed
Anders Guitars, Bass
See also: Sgt. Carnage, Non Serviam


Technical info
(IMG:http://metalarea.org/images/spectrogram/2018_Oct/d093e5ebc921e11861ca614f848a1a8d.png)
Input File: 03 No Promise of God.mp3
Channels : 2
Sample Rate : 44100
Precision : 16-bit
Duration : 00:04:51.57 = 12858149 samples = 21867.6 CDDA sectors
File Size : 12.6M
Bit Rate : 345k
Sample Encoding: MPEG audio (layer I, II or III)
Comments :
Title=No Promise Of God
Artist=Cursus Bellum
Album=Ex Nihilo Nihil Fit
Tracknumber=3/11
Year=2018
Genre=Death Metal
Discnumber=1/1



Register


Go to the top of the page
  Insert nick Quick quote
+Quote Post
 
Start new topic
Replies (1 - 2)
post Oct 11 2018, 18:26:42
Post #2

Правь статус, ####!111
**************
Group: Металариец
Posts: 15,305
Releases: 10451
From: Г.Харьков
On Forums: 6 years 7 months
Thanks: 173286 time(s)
Unknown


Cloud Mail 320
Register


Go to the top of the page
  Insert nick Quick quote
+Quote Post
post Oct 13 2018, 20:00:12
Post #3

MDM-Thrash Metal
**************
Group: Металариец
Posts: 7,297
Releases: 423
From: Одесса
On Forums: 11 years 4 months
Thanks: 13872 time(s)
Ukraine




Thanks:
(1) artscald,
Go to the top of the page
  Insert nick Quick quote
+Quote Post

Reply to this topicStart new topic
1 User(s) are reading this topic (1 Guests and 0 Anonymous Users)
0 Members:

 



- Lo-Fi Version Support form
Copyrights and abuse reports form
Time is now: 12th December 2018 - 05:48:27