Welcome Guest ( Log In | Register )

> Releases Upload / Добавление релизов

Добавить релиз тут / Click here to add release
Рекомендованные обменники / Recommended file shares

 
Reply to this topicStart new topic
> Back Pocket Prophet - To Overcome (2018), Thrash/Groove Metal
post Oct 11 2018, 16:01:31
Post #1
BAN
Banned till
Oct 20 2018, 09:33:06



(IMG:http://metalarea.org/images/audiocovers/2018_Oct/acov_tid311640_thumb.jpg)

*Artist: Back Pocket Prophet
*Album: To Overcome
*Year: 2018
*Genre: Thrash/Groove Metal
*Country: United Kingdom (IMG:http://metalarea.org/forum/style_images/flags/United%20Kingdom.png)
*Format: mp3@CBR320kbps
*Size: 84MB

Tracklist:
01. I'm Still Here 5:25
02. Renewed Heart 3:42
03. Demons Within 6:14
04. Moment of Clarity 6:24
05. Pain and Suffering 4:26
06. I'm Strong 3:59
07. Never Alone 8:24
******************************
Total playing time: 38:34



Extended info
Dan Random - Vocals
Vic Barton - Bass, vocals
Gabriel Cade - Guitars
Joakim Sehlstedt - Drums


Technical info
(IMG:http://metalarea.org/images/spectrogram/2018_Oct/ed9ea59e373b0ef96260a68699178a57.png)
Input File: 02. Renewed Heart.mp3
Channels : 2
Sample Rate : 44100
Precision : 16-bit
Duration : 00:03:43.00 = 9834124 samples = 16724.7 CDDA sectors
File Size : 9.02M
Bit Rate : 324k
Sample Encoding: MPEG audio (layer I, II or III)
Comments :
Title=Renewed Heart
Artist=Back Pocket Prophet
Album=To Overcome
Tracknumber=2
Year=2018
Discnumber=1



Register


Thanks:
Go to the top of the page
  Insert nick Quick quote
+Quote Post

Reply to this topicStart new topic
1 User(s) are reading this topic (1 Guests and 0 Anonymous Users)
0 Members:

 



- Lo-Fi Version Support form
Copyrights and abuse reports form
Time is now: 15th October 2018 - 11:17:02