Welcome Guest ( Log In | Register )

> Releases Upload / Добавление релизов

Добавить релиз тут / Click here to add release
Рекомендованные обменники / Recommended file shares

 
Reply to this topicStart new topic
> Silver Talon - Becoming A Demon [ep] (2018), Heavy Metal
post Oct 11 2018, 16:23:14
Post #1
BAN
Banned till
Oct 20 2018, 09:33:06



(IMG:http://metalarea.org/images/audiocovers/2018_Oct/acov_tid311641_thumb.jpg)

*Artist: Silver Talon
*Album: Becoming A Demon [ep]
*Year: 2018
*Genre: Heavy Metal
*Country: United States (IMG:http://metalarea.org/forum/style_images/flags/United%20States.png)
*Format: mp3@CBR320kbps
*Size: 66MB

Tracklist:
01. Breath of Kerosene (Intro)
02. Devil Machine
03. Silver Talon
04. Speed of the Night
05. Cold Embrace
06. Warriors' End
07. Battle Angels (feat. Jeff Loomis)
08. Outro (Estudio)
******************************
Total playing time: 31:12




Extended info
Wyatt Howell – Vocals
Bryce R. VanHoosen – Guitar
Sebastian Silva – Guitar
Gabriel Franco – Bass
Colin Vranizan – Drums


Technical info
(IMG:http://metalarea.org/images/spectrogram/2018_Oct/fb2a6fe77fcb86344e87d9954a8ff021.png)
Input File: 03. Silver Talon.mp3
Channels : 2
Sample Rate : 44100
Precision : 16-bit
Duration : 00:04:51.15 = 12839847 samples = 21836.5 CDDA sectors
File Size : 11.7M
Bit Rate : 322k
Sample Encoding: MPEG audio (layer I, II or III)
Comments :
Title=Silver Talon
Artist=Silver Talon
Album=Becoming a Demon
Tracknumber=3
Year=2018
Discnumber=1



Register


Go to the top of the page
  Insert nick Quick quote
+Quote Post

Reply to this topicStart new topic
2 User(s) are reading this topic (2 Guests and 0 Anonymous Users)
0 Members:

 



- Lo-Fi Version Support form
Copyrights and abuse reports form
Time is now: 15th October 2018 - 11:24:12