Welcome Guest ( Log In | Register )

> Releases Upload / Добавление релизов

Добавить релиз тут / Click here to add release
Рекомендованные обменники / Recommended file shares

> W.M.D - Lethal Revenge (2018), Thrash Metal
post Oct 11 2018, 16:43:21
Post #1
BAN
Banned till
Oct 20 2018, 09:33:06



(IMG:http://metalarea.org/images/audiocovers/2018_Oct/acov_tid311643_thumb.jpg)

*Artist: W.M.D
*Album: Lethal Revenge
*Year: 2018
*Genre: Thrash Metal
*Country: Canada (IMG:http://metalarea.org/forum/style_images/flags/Canada.png)
*Format: mp3@CBR320kbps
*Size: 98MB

Tracklist:
01. Ignition
02. Capture & Kill
03. Lethal Revenge
04. The Age of Extinction
05. Toxic Burn
06. Fragmentation
07. The Brazen Bull
08. Thrash Attack
09. Virus
******************************
Total playing time: 46:36



Extended info
Skyler Mills (Vocals/ Guitars)
Brody Blaze (Guitars)
Nolan Benedetti (Percussion)
Jake Axl Wendt (Bass Guitar)


Technical info
(IMG:http://metalarea.org/images/spectrogram/2018_Oct/f85bfb2b0555a0ed06dfc25fbecd0c8a.png)
Input File: 02. Capture & Kill.mp3
Channels : 2
Sample Rate : 44100
Precision : 16-bit
Duration : 00:03:43.57 = 9859481 samples = 16767.8 CDDA sectors
File Size : 9.05M
Bit Rate : 324k
Sample Encoding: MPEG audio (layer I, II or III)
Comments :
Title=Capture & Kill
Artist=W.M.D
Album=Lethal Revenge
Tracknumber=2
Year=2018
Discnumber=1



Register


Go to the top of the page
  Insert nick Quick quote
+Quote Post
 
Start new topic
Replies (1 - 3)
post Oct 12 2018, 08:51:47
Post #2

hearer & reader
**************
Group: Металариец
Posts: 6,953
Releases: 88
From: Moscow
On Forums: 11 years 1 month
Thanks: 6677 time(s)
Russian Federation


Эти - https://www.metal-archives.com/bands/Shrapnal/3540390795
Годно трэшат.
Go to the top of the page
  Insert nick Quick quote
+Quote Post
post Oct 12 2018, 16:35:18
Post #3

Маньяк
**********
Group: Металариец
Posts: 1,430
Releases: 0
From: Dnipro
On Forums: 10 years 3 months
Thanks: 387 time(s)
Ukraine


Об уровне группы сказать что то сложно, с таким качеством записи.
Go to the top of the page
  Insert nick Quick quote
+Quote Post
post Yesterday, 09:09:45
Post #4

Маньяк
**********
Group: Металариец
Posts: 1,300
Releases: 5
From: Нью-Васюки
On Forums: 12 years 4 months
Thanks: 373 time(s)
Russian Federation


Хорошая группа, только непонятно зачем так записались
Go to the top of the page
  Insert nick Quick quote
+Quote Post

Reply to this topicStart new topic
1 User(s) are reading this topic (1 Guests and 0 Anonymous Users)
0 Members:

 



- Lo-Fi Version Support form
Copyrights and abuse reports form
Time is now: 15th October 2018 - 12:38:43