Welcome Guest ( Log In | Register )

> Agony By Default - Refleksjoner (2018), Melodic Death Metal
post Oct 11 2018, 16:53:08
Post #1

Аннигилятор пивА
Group Icon
Group: V.I.P
Posts: 52,356
Releases: 16556
From: Koenigsberg - TILZIT
On Forums: 13 years 4 weeks
Thanks: 361178 time(s)
Russian Federation


(IMG:https://metalarea.org/images/audiocovers/2018_Oct/acov_tid311644_thumb.jpg)

*Artist: Agony By Default
*Album: Refleksjoner
*Year: 2018
*Genre: Melodic Death Metal
*Country: United States (IMG:https://metalarea.org/forum/style_images/flags/United%20States.png)
*Format: mp3@CBR320kbps
*Size: 154MB

Tracklist:
01. Until It Bleeds
02. The Sorrow in Your Eyes
03. Reflections
04. Tear Down the Walls
05. Invincible
06. Ghosts (Instrumental)
07. The Darkened Sun
08. Witness to Our Demise
09. The Path of a God
10. Eternity Waits
11. Survival
12. Revelations (Instrumental)
13. Overcome
******************************
Total playing time: 1:06:47




Extended info
Кодек GoGo

Преобладает скандинавская школа (условно ГЕТЕБОРГ плюс ДЭН СВАНО), монументальный, весьма суровый (с сочным рыком, ЗВУКОМ и бластами) и вместе с тем ненавязчиво мелодичный, кое-где придумленный...



Technical info
(IMG:https://metalarea.org/images/spectrogram/2018_Oct/1a097a02ee8dc6978642f6be51a4a844.png)
Input File: 03. Reflections.mp3
Channels : 2
Sample Rate : 44100
Precision : 16-bit
Duration : 00:06:45.60 = 17887048 samples = 30420.1 CDDA sectors
File Size : 16.3M
Bit Rate : 322k
Sample Encoding: MPEG audio (layer I, II or III)
Comments :
Title=Reflections
Artist=Agony by Default
Album=Refleksjoner
Tracknumber=3
Year=2018
Discnumber=1



Register


Go to the top of the page
  Insert nick Quick quote
+Quote Post
 
Start new topic
Replies (1 - 2)
post Oct 11 2018, 19:13:57
Post #2

Аннигилятор пивА
Group Icon
Group: V.I.P
Posts: 52,356
Releases: 16556
From: Koenigsberg - TILZIT
On Forums: 13 years 4 weeks
Thanks: 361178 time(s)
Russian Federation


MIRROR
Register

Register





Thanks:
Go to the top of the page
  Insert nick Quick quote
+Quote Post
post Oct 13 2018, 17:07:13
Post #3

MDM-Thrash Metal
**************
Group: Металариец
Posts: 8,217
Releases: 464
From: Одесса
On Forums: 11 years 10 months
Thanks: 15334 time(s)
Ukraine


С около блэковым душком.
Go to the top of the page
  Insert nick Quick quote
+Quote Post

Reply to this topicStart new topic
1 User(s) are reading this topic (1 Guests and 0 Anonymous Users)
0 Members:

 



- Lo-Fi Version Support form
Copyrights and abuse reports form
Time is now: 26th June 2019 - 11:06:58