Welcome Guest ( Log In | Register )

> Releases Upload / Добавление релизов

Добавить релиз тут / Click here to add release
Рекомендованные обменники / Recommended file shares

 
Reply to this topicStart new topic
> Reencarnacion - Pentadrama [ep] (2018), Black/Thrash Metal
post Oct 11 2018, 19:53:26
Post #1

Аннигилятор пивА
Group Icon
Group: V.I.P
Posts: 49,408
Releases: 15247
From: Koenigsberg - TILZIT
On Forums: 12 years 4 months
Thanks: 332744 time(s)
Russian Federation


(IMG:https://metalarea.org/images/audiocovers/2018_Oct/acov_tid311648_thumb.jpg)

*Artist: Reencarnacion
*Album: Pentadrama [ep]
*Year: 2018
*Genre: Black/Thrash Metal
*Country: Colombia (IMG:https://metalarea.org/forum/style_images/flags/Colombia.png)
*Format: mp3@CBR320kbps
*Size: 17MB

Tracklist:
01. Humus Sidera
02. Resistencia Neuronal
03. Moriri Es Nada
04. Repudio
05. Las Noches Azules
******************************
Total playing time: 7:12



Extended info
Camilo Vélez - Guitars
Piolín - Guitars (1986-2015), Vocals (1986-present) See also: ex-Profecía, ex-HP.HC
Martín David Naranjo - Drums (2008-present) See also: Blasfemia, Mordaz, Putrefacción, Ramón, Ominous
Laura Corrales - Bass (2015-present) See also: Mordaz, Putrefacción


Technical info
(IMG:https://metalarea.org/images/spectrogram/2018_Oct/4657d3d5444f1c4f7dcb532282e0c963.png)
Input File: 02. Resistencia Neuronal.mp3
Channels : 2
Sample Rate : 44100
Precision : 16-bit
Duration : 00:01:36.09 = 4237393 samples = 7206.45 CDDA sectors
File Size : 3.94M
Bit Rate : 328k
Sample Encoding: MPEG audio (layer I, II or III)
Comments :
Title=Resistencia Neuronal
Artist=Reencarnacion
Album=Pentadrama
Tracknumber=2
Discnumber=1



Register


Go to the top of the page
  Insert nick Quick quote
+Quote Post

Reply to this topicStart new topic
1 User(s) are reading this topic (1 Guests and 0 Anonymous Users)
0 Members:

 



- Lo-Fi Version Support form
Copyrights and abuse reports form
Time is now: 17th October 2018 - 13:14:51