Welcome Guest ( Log In | Register )

> Releases Upload / Добавление релизов

Добавить релиз тут / Click here to add release
Рекомендованные обменники / Recommended file shares

> Set And Setting - Tabula Rasa (2018), Psychedelic/Post-Black Metal
post Oct 11 2018, 19:58:22
Post #1

Аннигилятор пивА
Group Icon
Group: V.I.P
Posts: 49,504
Releases: 15303
From: Koenigsberg - TILZIT
On Forums: 12 years 4 months
Thanks: 333501 time(s)
Russian Federation


(IMG:https://metalarea.org/images/audiocovers/2018_Oct/acov_tid311649_thumb.jpg)

*Artist: Set And Setting
*Album: Tabula Rasa
*Year: 2018
*Genre: Psychedelic/Post-Black Metal
*Country: United States (IMG:https://metalarea.org/forum/style_images/flags/United%20States.png)
*Format: mp3@CBR320kbps
*Size: 85MB

Tracklist:
01. Circling Doldrums
02. Revisions Through...
03. ...Perenial Longing
04. Ecdysis
05. Circuital Tension Among...
06. ...The Black Swan
07. Elucidation
08. Desolate Waves Confine...
09. ...Wandering Tribulation
******************************
Total playing time: 38:23




Extended info
(Instrumental)


Technical info
(IMG:https://metalarea.org/images/spectrogram/2018_Oct/995afbc24fed88bd790e5c1f2d1fd8b2.png)
Input File: 02. Revisions Through....mp3
Channels : 2
Sample Rate : 44100
Precision : 16-bit
Duration : 00:02:58.38 = 7866426 samples = 13378.3 CDDA sectors
File Size : 7.47M
Bit Rate : 335k
Sample Encoding: MPEG audio (layer I, II or III)
Comments :
Title=Revisions Through...
Artist=Set and Setting
Album=Tabula Rasa
Tracknumber=2/9
Year=2018
Genre=Rock



Register


Go to the top of the page
  Insert nick Quick quote
+Quote Post
 
Start new topic
Replies (1 - 1)
post Oct 12 2018, 07:17:27
Post #2

Аннигилятор пивА
Group Icon
Group: V.I.P
Posts: 49,504
Releases: 15303
From: Koenigsberg - TILZIT
On Forums: 12 years 4 months
Thanks: 333501 time(s)
Russian Federation


MIRROR
Register



Thanks:
(1) Doooomed,
Go to the top of the page
  Insert nick Quick quote
+Quote Post

Reply to this topicStart new topic
1 User(s) are reading this topic (1 Guests and 0 Anonymous Users)
0 Members:

 



- Lo-Fi Version Support form
Copyrights and abuse reports form
Time is now: 20th October 2018 - 00:37:27