Welcome Guest ( Log In | Register )

> Releases Upload / Добавление релизов

Добавить релиз тут / Click here to add release
Рекомендованные обменники / Recommended file shares

> Allelic - The Smoke Of Atavistic Fires (2018), Atmospheric Black/Folk Metal
post Oct 11 2018, 21:02:43
Post #1
BAN
Banned till
Oct 20 2018, 09:33:06



(IMG:http://metalarea.org/images/audiocovers/2018_Oct/acov_tid311650_thumb.jpg)

*Artist: Allelic
*Album: The Smoke Of Atavistic Fires
*Year: 2018
*Genre: Atmospheric Black/Folk Metal
*Country: Canada (IMG:http://metalarea.org/forum/style_images/flags/Canada.png)
*Format: mp3@CBR320kbps
*Size: 81MB

Tracklist:
1. Fig.1 - In Blissful Ignorance 10:21
2. Fig.2 - Within a Decaying Vessel 09:51
3. Fig.3 - As Stars Shimmer Upon The Ritual 07:10
4. Fig.4 - The Transformation 05:33
5. Fig.5 - Elusive Prayers For An Absent God 04:26
******************************
Total playing time: 37:21



Extended info
Principal Investigator - Guitars, Bass, Wooden Spoons, Feet Percussions, Harmonica, Vocals, Programming


Technical info
(IMG:http://metalarea.org/images/spectrogram/2018_Oct/31d9b0719be55019be738c43161b3dcf.png)
Input File: 03-allelic-fig3_-_as_stars_shimmer_upon_the_ritual-cc56c7c6.mp3
Channels : 2
Sample Rate : 44100
Precision : 16-bit
Duration : 00:07:10.08 = 18966528 samples = 32256 CDDA sectors
File Size : 17.5M
Bit Rate : 326k
Sample Encoding: MPEG audio (layer I, II or III)
Comments :
Title=Fig.3 - As Stars Shimmer Upon The Ritual
Artist=Allelic
Album=The Smoke of Atavistic Fires
Tracknumber=3/5
Year=2018
Genre=Black Metal



Register


Go to the top of the page
  Insert nick Quick quote
+Quote Post
 
Start new topic
Replies (1 - 1)
post Oct 12 2018, 16:33:08
Post #2

Маньяк
**********
Group: Металариец
Posts: 1,430
Releases: 0
From: Dnipro
On Forums: 10 years 3 months
Thanks: 388 time(s)
Ukraine


Какофония какая то (IMG:style_emoticons/default/13.gif)
Go to the top of the page
  Insert nick Quick quote
+Quote Post

Reply to this topicStart new topic
1 User(s) are reading this topic (1 Guests and 0 Anonymous Users)
0 Members:

 



- Lo-Fi Version Support form
Copyrights and abuse reports form
Time is now: 17th October 2018 - 12:45:16