Welcome Guest ( Log In | Register )

> Releases Upload / Добавление релизов

Добавить релиз тут / Click here to add release
Рекомендованные обменники / Recommended file shares

 
Reply to this topicStart new topic
> Ancient Oak - To Kill A Weak One (2018), Atmospheric Black Metal (D)
post Oct 11 2018, 21:45:13
Post #1

Восемь Литров
********
Group: Металариец
Posts: 872
Releases: 731
From: Новороссийск
On Forums: 7 years 7 months
Thanks: 12458 time(s)
Russian Federation


(IMG:https://metalarea.org/images/audiocovers/2018_Oct/acov_tid311652_thumb.jpg)

*Artist: Ancient Oak
*Album: To Kill A Weak One
*Year: 2018
*Genre: Atmospheric Black Metal
*Country: Russian Federation (IMG:https://metalarea.org/forum/style_images/flags/Russian%20Federation.png)
*Format: mp3@CBR320kbps
*Size: 82MB

Tracklist:
01. Dragon's Greed 06:37
02. Promised In Legends 04:30
03. Swing Of The Sword 06:38
04. Witch Spell 06:11
05. Order Of Death 06:02
06. To Kill A Weak One 05:44
******************************
Total playing time: 35:42



Technical info
(IMG:https://metalarea.org/images/spectrogram/2018_Oct/0f5c7e81f53262f3a31e3fe513aaeaa7.png)
Input File: 02. Promised In Legends.mp3
Channels : 2
Sample Rate : 44100
Precision : 16-bit
Duration : 00:04:30.40 = 11924464 samples = 20279.7 CDDA sectors
File Size : 10.8M
Bit Rate : 320k
Sample Encoding: MPEG audio (layer I, II or III)
Comments :
Title=Promised In Legends
Artist=Ancient Oak
Album=To Kill A Weak One
Tracknumber=02
Year=2018
Genre=Black Metal



Register


Go to the top of the page
  Insert nick Quick quote
+Quote Post

Reply to this topicStart new topic
1 User(s) are reading this topic (1 Guests and 0 Anonymous Users)
0 Members:

 



- Lo-Fi Version Support form
Copyrights and abuse reports form
Time is now: 10th December 2018 - 18:49:58