Welcome Guest ( Log In | Register )

> Releases Upload / Добавление релизов

Добавить релиз тут / Click here to add release
Рекомендованные обменники / Recommended file shares

> Kaiserreich - Sigma (2018), Black Metal (D5)
post Oct 11 2018, 21:51:54
Post #1
BAN
Banned till
Oct 20 2018, 09:33:06



(IMG:http://metalarea.org/images/audiocovers/2018_Oct/acov_tid311653_thumb.jpg)

*Artist: Kaiserreich
*Album: Sigma
*Year: 2018
*Genre: Black Metal
*Country: Italy (IMG:http://metalarea.org/forum/style_images/flags/Italy.png)
*Format: mp3@CBR320kbps
*Size: 73MB

Tracklist:
01. Sigma 31:58
******************************
Total playing time: 31:58




Extended info
T. Morgan Bass (2004-2005, 2007-present)
Serpent Est Vocals (2004-present)
Abraxas Guitars (2005-present)
See also: Necrutero, Nott (live)
Luce Guitars (2008-present)
Amon Drums (2013-present)
See also: Necrutero, Nott (live), ex-Cernunnos, ex-Endless Pain


Technical info
(IMG:http://metalarea.org/images/spectrogram/2018_Oct/cdc5273909c898e2736f4b210fe39ac6.png)
Input File: 01 - Sigma.mp3
Channels : 2
Sample Rate : 44100
Precision : 16-bit
Duration : 00:31:58.91 = 84623711 samples = 143918 CDDA sectors
File Size : 76.8M
Bit Rate : 320k
Sample Encoding: MPEG audio (layer I, II or III)
Comments :
Title=Sigma
Artist=Kaiserreich
Album=Sigma
Tracknumber=1
Year=2018
Genre=Black Metal



Register


Go to the top of the page
  Insert nick Quick quote
+Quote Post
 
Start new topic
Replies (1 - 1)
post Oct 13 2018, 16:47:35
Post #2

MDM-Thrash Metal
**************
Group: Металариец
Posts: 7,162
Releases: 421
From: Одесса
On Forums: 11 years 2 months
Thanks: 13657 time(s)
Ukraine


Register
Go to the top of the page
  Insert nick Quick quote
+Quote Post

Reply to this topicStart new topic
1 User(s) are reading this topic (1 Guests and 0 Anonymous Users)
0 Members:

 



- Lo-Fi Version Support form
Copyrights and abuse reports form
Time is now: 20th October 2018 - 00:36:50