Welcome Guest ( Log In | Register )

> Волколунь - Path Through The Mist [ep] (2018), Folk/Black Metal
post Oct 11 2018, 22:18:15
Post #1

Правь статус, ####!111
**************
Group: Металариец
Posts: 3,517
Releases: 779
From: Brazil
On Forums: 7 years 2 weeks
Thanks: 29611 time(s)
Brazil


(IMG:https://metalarea.org/images/audiocovers/2018_Oct/acov_tid311654_thumb.jpg)

*Artist: Волколунь
*Album: Path Through The Mist [ep]
*Year: 2018
*Genre: Folk/Black Metal
*Country: Russian Federation (IMG:https://metalarea.org/forum/style_images/flags/Russian%20Federation.png)
*Format: mp3@CBR320kbps
*Size: 50MB

Tracklist:
1. Intro 02:35
2. Wayfarer 06:27
3. Zmora 06:15
4. Her Majesty 06:07
******************************
Total playing time: 21:24



Extended info
Location: Belgorod, Russia / Warsaw, Poland


Technical info
(IMG:https://metalarea.org/images/spectrogram/2018_Oct/67837fcf313c8a4d1aeba33f86634561.png)
Input File: 04 Her Majesty.mp3
Channels : 2
Sample Rate : 44100
Precision : 16-bit
Duration : 00:06:08.09 = 16232549 samples = 27606.4 CDDA sectors
File Size : 14.7M
Bit Rate : 320k
Sample Encoding: MPEG audio (layer I, II or III)
Comments :
Title=Her Majesty
Artist=Волколунь
Album=Path Through the Mist
Tracknumber=4
Year=2018



Register


Go to the top of the page
  Insert nick Quick quote
+Quote Post
 
Start new topic
Replies (1 - 4)
post Oct 12 2018, 08:58:22
Post #2

Восемь Литров
********
Group: Металариец
Posts: 804
Releases: 0
From: Новосибирск
On Forums: 9 years 5 months
Thanks: 206 time(s)
Russian Federation


Волколунь - что за гибрид такой? (IMG:style_emoticons/default/1488.gif)


Go to the top of the page
  Insert nick Quick quote
+Quote Post
post Oct 13 2018, 02:52:29
Post #3

Правь статус, ####!111
**************
Group: Металариец
Posts: 3,517
Releases: 779
From: Brazil
On Forums: 7 years 2 weeks
Thanks: 29611 time(s)
Brazil


Register
Go to the top of the page
  Insert nick Quick quote
+Quote Post
post Oct 19 2018, 22:01:42
Post #4

Два Литра
**
Group: Завсегдатай
Posts: 185
Releases: 0
From: Москва
On Forums: 10 years 5 months
Thanks: 24 time(s)
Russian Federation


ЦИТАТА(SSWolf88 @ Oct 12 2018, 10:58:22) *
Волколунь - что за гибрид такой? (IMG:style_emoticons/default/1488.gif)

да вы что, это ж родный брат пёсозведа и свинотуча


Go to the top of the page
  Insert nick Quick quote
+Quote Post
post Nov 27 2018, 22:23:43
Post #5

Правь статус, ####!111
**************
Group: Металариец
Posts: 37,283
Releases: 547
On Forums: 9 years 8 months
Thanks: 28666 time(s)
Russian Federation


ЦИТАТА(SSWolf88 @ Oct 12 2018, 11:58:22) *
Волколунь - что за гибрид такой? (IMG:style_emoticons/default/1488.gif)


Это великий и могучий русский язык и бессмысленный и беспощадный русский же "блэк" метал (IMG:style_emoticons/default/1488.gif)
Go to the top of the page
  Insert nick Quick quote
+Quote Post

Reply to this topicStart new topic
1 User(s) are reading this topic (1 Guests and 0 Anonymous Users)
0 Members:

 



- Lo-Fi Version Support form
Copyrights and abuse reports form
Time is now: 16th February 2019 - 14:49:34