Welcome Guest ( Log In | Register )

> Releases Upload / Добавление релизов

Добавить релиз тут / Click here to add release
Рекомендованные обменники / Recommended file shares

> Волколунь - Path Through The Mist [ep] (2018), Folk/Black Metal
post Oct 11 2018, 22:18:15
Post #1

Правь статус, ####!111
**************
Group: Металариец
Posts: 3,329
Releases: 662
From: Brazil
On Forums: 6 years 8 months
Thanks: 26156 time(s)
Brazil


(IMG:https://metalarea.org/images/audiocovers/2018_Oct/acov_tid311654_thumb.jpg)

*Artist: Волколунь
*Album: Path Through The Mist [ep]
*Year: 2018
*Genre: Folk/Black Metal
*Country: Russian Federation (IMG:https://metalarea.org/forum/style_images/flags/Russian%20Federation.png)
*Format: mp3@CBR320kbps
*Size: 50MB

Tracklist:
1. Intro 02:35
2. Wayfarer 06:27
3. Zmora 06:15
4. Her Majesty 06:07
******************************
Total playing time: 21:24



Extended info
Location: Belgorod, Russia / Warsaw, Poland


Technical info
(IMG:https://metalarea.org/images/spectrogram/2018_Oct/67837fcf313c8a4d1aeba33f86634561.png)
Input File: 04 Her Majesty.mp3
Channels : 2
Sample Rate : 44100
Precision : 16-bit
Duration : 00:06:08.09 = 16232549 samples = 27606.4 CDDA sectors
File Size : 14.7M
Bit Rate : 320k
Sample Encoding: MPEG audio (layer I, II or III)
Comments :
Title=Her Majesty
Artist=Волколунь
Album=Path Through the Mist
Tracknumber=4
Year=2018



Register


Go to the top of the page
  Insert nick Quick quote
+Quote Post
 
Start new topic
Replies (1 - 3)
post Oct 12 2018, 08:58:22
Post #2

Семь Литров
*******
Group: Металариец
Posts: 760
Releases: 0
From: Новосибирск
On Forums: 9 years 1 month
Thanks: 199 time(s)
Russian Federation


Волколунь - что за гибрид такой? (IMG:style_emoticons/default/1488.gif)


Thanks:
Go to the top of the page
  Insert nick Quick quote
+Quote Post
post Oct 13 2018, 02:52:29
Post #3

Правь статус, ####!111
**************
Group: Металариец
Posts: 3,329
Releases: 662
From: Brazil
On Forums: 6 years 8 months
Thanks: 26156 time(s)
Brazil


Register
Go to the top of the page
  Insert nick Quick quote
+Quote Post
post Yesterday, 22:01:42
Post #4

Два Литра
**
Group: Завсегдатай
Posts: 169
Releases: 0
From: Москва
On Forums: 10 years 1 month
Thanks: 14 time(s)
Russian Federation


ЦИТАТА(SSWolf88 @ Oct 12 2018, 10:58:22) *
Волколунь - что за гибрид такой? (IMG:style_emoticons/default/1488.gif)

да вы что, это ж родный брат пёсозведа и свинотуча
Go to the top of the page
  Insert nick Quick quote
+Quote Post

Reply to this topicStart new topic
1 User(s) are reading this topic (1 Guests and 0 Anonymous Users)
0 Members:

 



- Lo-Fi Version Support form
Copyrights and abuse reports form
Time is now: 20th October 2018 - 01:23:20