Welcome Guest ( Log In | Register )

> Releases Upload / Добавление релизов

Добавить релиз тут / Click here to add release
Рекомендованные обменники / Recommended file shares

> Sothoris - Raj Potępiony (2018), Black Metal
post Oct 11 2018, 22:48:20
Post #1

Правь статус, ####!111
**************
Group: Металариец
Posts: 3,327
Releases: 662
From: Brazil
On Forums: 6 years 8 months
Thanks: 26119 time(s)
Brazil


(IMG:https://metalarea.org/images/audiocovers/2018_Oct/acov_tid311656_thumb.jpg)

*Artist: Sothoris
*Album: Raj Potępiony
*Year: 2018
*Genre: Black Metal
*Country: Poland (IMG:https://metalarea.org/forum/style_images/flags/Poland.png)
*Format: mp3@CBR320kbps
*Size: 89MB

Tracklist:
1. Gnijący świat 06:00
2. Starzec 03:50
3. Owca wilczą skórą okryta 03:41
4. Homo misantropus 05:50
5. Klątwa 04:21
6. Si vis pacem para bellum 04:51
7. Skazaniec 04:17
8. Zemsta i odkupienie 04:20
9. Ostatnie słowo umierającej duszy 01:22
******************************
Total playing time: 38:32

Technical info
(IMG:https://metalarea.org/images/spectrogram/2018_Oct/62ea867a49aa1f0a6b8135e32a49177c.png)
Input File: 03 Owca wilczą skórą okryta.mp3
Channels : 2
Sample Rate : 44100
Precision : 16-bit
Duration : 00:03:41.09 = 9749893 samples = 16581.5 CDDA sectors
File Size : 8.84M
Bit Rate : 320k
Sample Encoding: MPEG audio (layer I, II or III)
Comments :
Title=Owca wilczą skórą okryta
Artist=Sothoris
Album=Raj Potępiony
Tracknumber=3
Year=2018



Register


Go to the top of the page
  Insert nick Quick quote
+Quote Post
 
Start new topic
Replies (1 - 6)
post Oct 12 2018, 08:04:29
Post #2

Четыре Литра
****
Group: Металариец
Posts: 319
Releases: 9
From: Подольск
On Forums: 9 years 4 months
Thanks: 347 time(s)
Russian Federation


preview
Go to the top of the page
  Insert nick Quick quote
+Quote Post
post Oct 12 2018, 15:04:23
Post #3

Маньяк
**********
Group: Металариец
Posts: 1,430
Releases: 0
From: Dnipro
On Forums: 10 years 3 months
Thanks: 388 time(s)
Ukraine


Достойная работа, заслуживающая пристального внимания.


Thanks:
Go to the top of the page
  Insert nick Quick quote
+Quote Post
post Oct 12 2018, 19:34:34
Post #4

Group: Подсевший
Posts: 22
Releases: 0
From: The Road...
On Forums: 11 years 1 month
Thanks: 4 time(s)
Canada


New link? Thanks in advance!
Go to the top of the page
  Insert nick Quick quote
+Quote Post
post Oct 12 2018, 21:10:03
Post #5

Два Литра
**
Group: Завсегдатай
Posts: 125
Releases: 0
On Forums: 9 years 8 months
Thanks: 67 time(s)
Ukraine


ЦИТАТА(oden44 @ Oct 12 2018, 21:34:34) *
New link? Thanks in advance!


Register
Go to the top of the page
  Insert nick Quick quote
+Quote Post
post Oct 13 2018, 01:24:20
Post #6

Group: Подсевший
Posts: 22
Releases: 0
From: The Road...
On Forums: 11 years 1 month
Thanks: 4 time(s)
Canada


Thanks!
Go to the top of the page
  Insert nick Quick quote
+Quote Post
post Oct 13 2018, 09:10:43
Post #7

Три Литра
***
Group: Завсегдатай
Posts: 275
Releases: 1
On Forums: 1 year 4 months
Thanks: 107 time(s)
Russian Federation


приятная весчь. чуть бы поменьше долбежности а-ля бельфегор, в остальном здорово
Go to the top of the page
  Insert nick Quick quote
+Quote Post

Reply to this topicStart new topic
1 User(s) are reading this topic (1 Guests and 0 Anonymous Users)
0 Members:

 



- Lo-Fi Version Support form
Copyrights and abuse reports form
Time is now: 17th October 2018 - 13:24:24