Welcome Guest ( Log In | Register )

> Releases Upload / Добавление релизов

Добавить релиз тут / Click here to add release
Рекомендованные обменники / Recommended file shares

> Injury - Wreckage [ep] (2018), Thrash Metal
post Oct 11 2018, 22:53:54
Post #1
BAN
Banned till
Oct 20 2018, 09:33:06



(IMG:http://metalarea.org/images/audiocovers/2018_Oct/acov_tid311657_thumb.jpg)

*Artist: Injury
*Album: Wreckage [ep]
*Year: 2018
*Genre: Thrash Metal
*Country: Italy (IMG:http://metalarea.org/forum/style_images/flags/Italy.png)
*Format: mp3@CBR320kbps
*Size: 39MB

Tracklist:
1. The Brand of Hate 03:33
2. Under the Sign of Devastation 03:28
3. Fueled by Rage 04:24
4. Endless Decay 03:28
5. I Don't Belong 03:37
******************************
Total playing time: 18:30



Extended info
Mibbe Bass
See also: The Modern Age Slavery, ex-When Love Finishes, ex-Mad Maze
Alle Vocals (2013-present)
Pollo Drums (2015-present)
See also: Tearing Blood, ex-Rusted, ex-Screaming Shadow
Simon Guitars (2017-present)


Technical info
(IMG:http://metalarea.org/images/spectrogram/2018_Oct/6bce28f468ad7577da9297de682fac07.png)
Input File: 02. Under the Sign of Devastation.mp3
Channels : 2
Sample Rate : 44100
Precision : 16-bit
Duration : 00:03:28.84 = 9209712 samples = 15662.8 CDDA sectors
File Size : 8.41M
Bit Rate : 322k
Sample Encoding: MPEG audio (layer I, II or III)
Comments :
Title=Under the Sign of Devastation
Artist=Injury
Album=Wreckage
Tracknumber=2
Year=2018
Discnumber=1



Register


Go to the top of the page
  Insert nick Quick quote
+Quote Post
 
Start new topic
Replies (1 - 1)
post Oct 14 2018, 09:07:56
Post #2

Маньяк
**********
Group: Металариец
Posts: 1,301
Releases: 5
From: Нью-Васюки
On Forums: 12 years 5 months
Thanks: 373 time(s)
Russian Federation


Отлично
Go to the top of the page
  Insert nick Quick quote
+Quote Post

Reply to this topicStart new topic
1 User(s) are reading this topic (1 Guests and 0 Anonymous Users)
0 Members:

 



- Lo-Fi Version Support form
Copyrights and abuse reports form
Time is now: 20th October 2018 - 00:44:14