Welcome Guest ( Log In | Register )

> Releases Upload / Добавление релизов

Добавить релиз тут / Click here to add release
Рекомендованные обменники / Recommended file shares

> Kandaon - Ageless Through Time (2012), Pagan/Black Metal (D)
post Oct 11 2018, 23:09:45
Post #1

Правь статус, ####!111
**************
Group: Металариец
Posts: 3,329
Releases: 662
From: Brazil
On Forums: 6 years 8 months
Thanks: 26156 time(s)
Brazil


(IMG:https://metalarea.org/images/audiocovers/2018_Oct/acov_tid311658_thumb.jpg)

*Artist: Kandaon
*Album: Ageless Through Time
*Year: 2012
*Genre: Pagan/Black Metal
*Country: Romania (IMG:https://metalarea.org/forum/style_images/flags/Romania.png)
*Format: mp3@CBR320kbps
*Size: 78MB

Tracklist:
1. Ageless Through Time 05:27
2. The Curse of Time 07:12
3. Hypocritical Oath 05:32
4. In Ice and Wind We Call 06:46
5. Void yet Free 07:50
6. Hidden Track 01:39
******************************
Total playing time: 34:26

(IMG:https://metalarea.org/images/youtube.png)
(IMG:https://metalarea.org/images/youtube.png)

Extended info
Arcana Noctis


Technical info
(IMG:https://metalarea.org/images/spectrogram/2018_Oct/9e059b6a053db1e83196365f17f16809.png)
Input File: 01 Ageless Through Time.mp3
Channels : 2
Sample Rate : 44100
Precision : 16-bit
Duration : 00:05:27.07 = 14423831 samples = 24530.3 CDDA sectors
File Size : 13.1M
Bit Rate : 320k
Sample Encoding: MPEG audio (layer I, II or III)
Comments :
Title=Ageless Through Time
Artist=Kandaon
Album=Ageless Through Time
Tracknumber=1
Year=2012



Register


Go to the top of the page
  Insert nick Quick quote
+Quote Post
 
Start new topic
Replies (1 - 2)
post Oct 12 2018, 15:01:13
Post #2

Маньяк
**********
Group: Металариец
Posts: 1,447
Releases: 0
From: Dnipro
On Forums: 10 years 3 months
Thanks: 388 time(s)
Ukraine


По румынски Kandaon, по английски Condom (IMG:style_emoticons/default/smile3.gif)
Go to the top of the page
  Insert nick Quick quote
+Quote Post
post Oct 13 2018, 23:38:11
Post #3

Победитель судьбы
**************
Group: Металариец
Posts: 5,156
Releases: 0
From: Страны Мамонтов
On Forums: 11 years 7 months
Thanks: 1772 time(s)
Antarctica


ЦИТАТА(isvili @ Oct 12 2018, 17:01:13) *
По румынски Kandaon, по английски Condom (IMG:style_emoticons/default/smile3.gif)

А ты неплохо так в румынском шаришь
Go to the top of the page
  Insert nick Quick quote
+Quote Post

Reply to this topicStart new topic
1 User(s) are reading this topic (1 Guests and 0 Anonymous Users)
0 Members:

 



- Lo-Fi Version Support form
Copyrights and abuse reports form
Time is now: 20th October 2018 - 01:47:22