Welcome Guest ( Log In | Register )

> Releases Upload / Добавление релизов

Добавить релиз тут / Click here to add release
Рекомендованные обменники / Recommended file shares

> Apatheia - Konstelacja Dziur (2018), Black Metal
post Oct 11 2018, 23:17:31
Post #1

Правь статус, ####!111
**************
Group: Металариец
Posts: 3,327
Releases: 662
From: Brazil
On Forums: 6 years 8 months
Thanks: 26119 time(s)
Brazil


(IMG:https://metalarea.org/images/audiocovers/2018_Oct/acov_tid311659_thumb.jpg)

*Artist: Apatheia
*Album: Konstelacja Dziur
*Year: 2018
*Genre: Black Metal
*Country: Poland (IMG:https://metalarea.org/forum/style_images/flags/Poland.png)
*Format: mp3@CBR320kbps
*Size: 119MB

Tracklist:
1. Odmętnia 04:56
2. Ślepe oddanie 04:41
3. Zimna krew 04:33
4. Złudzenie życia 05:14
5. Boże ciało 10:43
6. Raj 06:20
7. Skracanie 05:14
8. Supernowa 10:03
******************************
Total playing time: 51:44

Extended info
Godz ov War Productions

Herr Mann Bass, Vocals
Anůnn Drums
Vos Vocals, Guitars
See also: Absque Cor


Technical info
(IMG:https://metalarea.org/images/spectrogram/2018_Oct/916a9563d2fdf042439eb4f25b3b43d4.png)
Input File: 03 Zimna Krew.mp3
Channels : 2
Sample Rate : 44100
Precision : 16-bit
Duration : 00:04:34.09 = 12087413 samples = 20556.8 CDDA sectors
File Size : 11.0M
Bit Rate : 320k
Sample Encoding: MPEG audio (layer I, II or III)
Comments :
Title=Zimna Krew
Artist=Apatheia
Album=Konstelacja Dziur
Tracknumber=3
Year=2018



Register


Go to the top of the page
  Insert nick Quick quote
+Quote Post
 
Start new topic
Replies (1 - 3)
post Oct 12 2018, 08:40:57
Post #2

Шесть Литров
******
Group: Металариец
Posts: 655
Releases: 0
On Forums: 10 years 11 months
Thanks: 242 time(s)
Belarus




Thanks:
Go to the top of the page
  Insert nick Quick quote
+Quote Post
post Oct 12 2018, 15:00:12
Post #3

Маньяк
**********
Group: Металариец
Posts: 1,430
Releases: 0
From: Dnipro
On Forums: 10 years 3 months
Thanks: 388 time(s)
Ukraine


Не плохо, узнается польская школа, единственное что не пошло, так это вокал в некоторых местах.
Go to the top of the page
  Insert nick Quick quote
+Quote Post
post Oct 13 2018, 02:51:41
Post #4

Правь статус, ####!111
**************
Group: Металариец
Posts: 3,327
Releases: 662
From: Brazil
On Forums: 6 years 8 months
Thanks: 26119 time(s)
Brazil


Register


Thanks:
Go to the top of the page
  Insert nick Quick quote
+Quote Post

Reply to this topicStart new topic
1 User(s) are reading this topic (1 Guests and 0 Anonymous Users)
0 Members:

 



- Lo-Fi Version Support form
Copyrights and abuse reports form
Time is now: 17th October 2018 - 12:41:09