Welcome Guest ( Log In | Register )

> Releases Upload / Добавление релизов

Добавить релиз тут / Click here to add release
Рекомендованные обменники / Recommended file shares

 
Reply to this topicStart new topic
> Hyrgal & Verfallen & Bâ'a - Bâ'a/Verfallen/Hyrgal [split] (2018), Black Metal | Black Metal | Black Metal
post Oct 11 2018, 23:32:16
Post #1

Правь статус, ####!111
**************
Group: Металариец
Posts: 3,327
Releases: 662
From: Brazil
On Forums: 6 years 8 months
Thanks: 26119 time(s)
Brazil


(IMG:https://metalarea.org/images/audiocovers/2018_Oct/acov_tid311661_thumb.jpg)

*Artist: Hyrgal & Verfallen & Bâ'a
*Album: Bâ'a/Verfallen/Hyrgal [split]
*Year: 2018
*Genre: Black Metal | Black Metal | Black Metal
*Country: France (IMG:https://metalarea.org/forum/style_images/flags/France.png) | France (IMG:https://metalarea.org/forum/style_images/flags/France.png) | France (IMG:https://metalarea.org/forum/style_images/flags/France.png)
*Format: mp3@CBR320kbps
*Size: 124MB

Tracklist:
Bâ'a:
1. Les terres de la terreur 06:19
2. La grande désillusion 07:35
Verfallen:
3. Derelictus 09:37
4. La valeur des ténèbres 10:47
Hyrgal:
5. Césure 06:34
6. Sicaire 12:40
******************************
Total playing time: 53:32




Extended info
Les Acteurs de l'Ombre Productions


Technical info
(IMG:https://metalarea.org/images/spectrogram/2018_Oct/84f167730bd1cf67a449d7442d214234.png)
Input File: 01. Bâ'a - Les terres de la terreur.mp3
Channels : 2
Sample Rate : 44100
Precision : 16-bit
Duration : 00:06:20.08 = 16761352 samples = 28505.7 CDDA sectors
File Size : 15.2M
Bit Rate : 320k
Sample Encoding: MPEG audio (layer I, II or III)
Comments :
Title=Les terres de la terreur
Artist=Bâ'a
Album=Bâ'a / Verfallen / Hyrgal
Tracknumber=1
Year=2018



Register


Go to the top of the page
  Insert nick Quick quote
+Quote Post

Reply to this topicStart new topic
1 User(s) are reading this topic (1 Guests and 0 Anonymous Users)
0 Members:

 



- Lo-Fi Version Support form
Copyrights and abuse reports form
Time is now: 17th October 2018 - 12:20:59