Welcome Guest ( Log In | Register )

> Releases Upload / Добавление релизов

Добавить релиз тут / Click here to add release
Рекомендованные обменники / Recommended file shares

> Chthonic - Battlefields Of Asura (2018), Melodic Black/Death/Folk Metal (D)
post Oct 11 2018, 23:45:24
Post #1

Аннигилятор пивА
Group Icon
Group: V.I.P
Posts: 49,408
Releases: 15247
From: Koenigsberg - TILZIT
On Forums: 12 years 4 months
Thanks: 332737 time(s)
Russian Federation


(IMG:https://metalarea.org/images/audiocovers/2018_Oct/acov_tid311663_thumb.png)

*Artist: Chthonic
*Album: Battlefields Of Asura
*Year: 2018
*Genre: Melodic Black/Death/Folk Metal
*Country: Taiwan (IMG:https://metalarea.org/forum/style_images/flags/Taiwan.png)
*Format: mp3@CBR320kbps
*Size: 97MB

Tracklist:
01. Drawing Omnipotence Nigh
02. The Silent One’s Torch
03. Flames Upon The Weeping Winds
04. A Crimson Sky's Command
05. Souls Of The Revolution
06. Taste The Black Tears
07. One Thousand Eyes
08. Masked Faith
09. Carved In Bloodstone
10. Millennia’s Faith Undone
11. Autopoiesis
******************************
Total playing time: 39:56



Extended info
Freddy Lim - Vocals (1995-present), Erhu (1999-present) See also: Metal Clone X
Doris Yeh - Bass, Vocals (backing) (1999-present)
Jesse Liu - Guitars (1999-present), Vocals (backing) (2009-present) See also: Infernal Chaos
Dani Wang - Drums (2005-present) See also: Party to Party
CJ Kao - Keyboards (2005-present)



Technical info
(IMG:https://metalarea.org/images/spectrogram/2018_Oct/f9f96d37976fc93a52fea289890e84c3.png)
Input File: 03 Flames upon the Weeping Winds.mp3
Channels : 2
Sample Rate : 44100
Precision : 16-bit
Duration : 00:03:10.18 = 8386982 samples = 14263.6 CDDA sectors
File Size : 8.55M
Bit Rate : 360k
Sample Encoding: MPEG audio (layer I, II or III)
Comments :
Title=Flames upon the Weeping Winds
Artist=chthonic
Album=Battlefields of Asura (English Version)
Tracknumber=3/11
Year=2018
Genre=Rock
Discnumber=1/1



Register


Go to the top of the page
  Insert nick Quick quote
+Quote Post
 
Start new topic
Replies (1 - 4)
post Oct 12 2018, 07:12:19
Post #2

Аннигилятор пивА
Group Icon
Group: V.I.P
Posts: 49,408
Releases: 15247
From: Koenigsberg - TILZIT
On Forums: 12 years 4 months
Thanks: 332737 time(s)
Russian Federation


MIRROR
Register


Taiwanese Version
94MB/320
Register

Register


Go to the top of the page
  Insert nick Quick quote
+Quote Post
post Oct 12 2018, 10:34:44
Post #3

Шесть Литров
******
Group: Металариец
Posts: 505
Releases: 8
On Forums: 7 years 2 months
Thanks: 297 time(s)
Russian Federation


По превью прямо-таки Stormlord с восточным колоритом вместо средиземноморского
Go to the top of the page
  Insert nick Quick quote
+Quote Post
post Oct 12 2018, 12:20:53
Post #4

Group: Дух
Posts: 1
Releases: 0
On Forums: 5 days 6 minutes
Thanks: 0 time(s)
Indonesia


just want to say thanks for uploading the taiwanese version
Go to the top of the page
  Insert nick Quick quote
+Quote Post
post Oct 12 2018, 14:58:55
Post #5

Маньяк
**********
Group: Металариец
Posts: 1,430
Releases: 0
From: Dnipro
On Forums: 10 years 3 months
Thanks: 388 time(s)
Ukraine


Есть у них хорошие альбомы, есть и провальные, новый нужно обязательно заценить.
Судя по ютубу, что то он раньше так не визжал (IMG:style_emoticons/default/13.gif)
Go to the top of the page
  Insert nick Quick quote
+Quote Post

Reply to this topicStart new topic
1 User(s) are reading this topic (1 Guests and 0 Anonymous Users)
0 Members:

 



- Lo-Fi Version Support form
Copyrights and abuse reports form
Time is now: 17th October 2018 - 12:25:35